Why are we here? Where do we come from? Will we ever know?..

Ishq Brandy 2014 [DvdScr Rip] [Movies2Fun] torrent

Seeders: 66 Leechers: 53 706.88 MB
Download in BitLord Download torrent
To download this torrent you need BitLord
0 0
Rated 5 / 10


Tags:

movies  |  2014  |  dvdscr

Files:

Ishq Brandy 2014 [DvdScr Rip] [Movies2Fun]/Ishq Brandy 2014 [DvdScr Rip] [Movies2Fun].mkv 703.87 MB
Ishq Brandy 2014 [DvdScr Rip] [Movies2Fun]/Sample.mkv 3 MB
Ishq Brandy 2014 [DvdScr Rip] [Movies2Fun]/Movie Info.txt 7.8 KB
706.88 MB in 4 files. Torrent created at 2014-02-27 06:11:58

Torrent Info:


Ishq Brandy 2014 General
Format : Matroska
Format version : Version 4 / Version 2
File size : 704 MiB
Duration : 2h 3mn
Overall bit rate : 796 Kbps
Encoded date : UTC 2014-02-26 12:48:13
Writing application : mkvmerge v6.5.0 ('Isn't she lovely') built on Oct 20 2013 12:50:05
Writing library : libebml v1.3.0 + libmatroska v1.4.1Video
ID : 1
Format : AVC
Format/Info : Advanced Video Codec
Format profile : 
/*  */

Format settings, CABAC : Yes
Format settings, ReFrames : 4 frames
Codec ID : V_MPEG4/ISO/AVC
Duration : 2h 3mn
Bit rate : 744 Kbps
Width : 608 pixels
Height : 288 pixels
Display aspect ratio : 2.111
Frame rate mode : Constant
Frame rate : 23.976 fps
Color space : YUV
Chroma subsampling : 4:2:0
Bit depth : 8 bits
Scan type : Progressive
Bits/(Pixel*Frame) : 0.177
Stream size : 647 MiB (92%)
Writing library : x264 core 138 r2358 9e941d1
Language : English
Default : Yes
Forced : NoAudio
ID : 2
Format : MPEG Audio
Format version : Version 2
Format profile : Layer 3
Mode : Joint stereo
Mode extension : MS Stereo
Codec ID : A_MPEG/L3
Codec ID/Hint : MP3
Duration : 2h 3mn
Bit rate mode : Constant
Bit rate : 48.0 Kbps
Channel count : 2 channels
Sampling rate : 22.05 KHz
Compression mode : Lossy
Delay relative to video : 7ms
Stream size : 42.5 MiB (6%)
Title : 
Default : Yes
Forced : NoScreenShotsCheck Sample Before DownloadKeep Seeding

Info hash: d5b23a37a5eea396bad965f52a4b13370e95f378 (?)

Related torrents for "Ishq Brandy 2014 [DvdScr Rip] [Movies2Fun]"