Tip

Did you know we post updates on our blog and Facebook page?

Ishq Brandy 2014 [DvdScr Rip] [Movies2Fun] torrent

Download torrent
5

Do you like this torrent?

Yes No

Torrent Info:


Ishq Brandy 2014 General
Format : Matroska
Format version : Version 4 / Version 2
File size : 704 MiB
Duration : 2h 3mn
Overall bit rate : 796 Kbps
Encoded date : UTC 2014-02-26 12:48:13
Writing application : mkvmerge v6.5.0 ('Isn't she lovely') built on Oct 20 2013 12:50:05
Writing library : libebml v1.3.0 + libmatroska v1.4.1Video
ID : 1
Format : AVC
Format/Info : Advanced Video Codec
Format profile : 
/*  */

Format settings, CABAC : Yes
Format settings, ReFrames : 4 frames
Codec ID : V_MPEG4/ISO/AVC
Duration : 2h 3mn
Bit rate : 744 Kbps
Width : 608 pixels
Height : 288 pixels
Display aspect ratio : 2.111
Frame rate mode : Constant
Frame rate : 23.976 fps
Color space : YUV
Chroma subsampling : 4:2:0
Bit depth : 8 bits
Scan type : Progressive
Bits/(Pixel*Frame) : 0.177
Stream size : 647 MiB (92%)
Writing library : x264 core 138 r2358 9e941d1
Language : English
Default : Yes
Forced : NoAudio
ID : 2
Format : MPEG Audio
Format version : Version 2
Format profile : Layer 3
Mode : Joint stereo
Mode extension : MS Stereo
Codec ID : A_MPEG/L3
Codec ID/Hint : MP3
Duration : 2h 3mn
Bit rate mode : Constant
Bit rate : 48.0 Kbps
Channel count : 2 channels
Sampling rate : 22.05 KHz
Compression mode : Lossy
Delay relative to video : 7ms
Stream size : 42.5 MiB (6%)
Title : 
Default : Yes
Forced : NoScreenShotsCheck Sample Before DownloadKeep Seeding

Torrent created at 2014-02-27 06:11:58

Torrent search:

movies 2014 dvdscr
Info hash: d5b23a37a5eea396bad965f52a4b13370e95f378

Related torrents for "Ishq Brandy 2014 [DvdScr Rip] [Movies2Fun]"

Related torrents for "Ishq Brandy 2014 [DvdScr Rip] [Movies2Fun]"

Top Searches

  1. ishq brandy
  2. beyonce
  3. we were quiet once
  4. tissue salts
  5. mardani
  6. la pianiste
  7. a walk among the tombstones 1080p
  8. mdk
  9. chinese
  10. wild heart
  11. erasitexniko sirina
  12. annabelle 2014
  13. the birds 1963
  14. farm frenzy 2
  15. for a fistful of dollars
  16. turbo
  17. sin city nl
  18. casey calvert
  19. bad neighbours
  20. act like a success think like a success pdf
  21. paolini
  22. wife pictures
  23. mydirtyhobby schnuggie91
  24. masturbate
  25. equinox sounds
  26. wow girls penelope
  27. disclosure settle
  28. reggae
  29. animalxxx
  30. dredd
  31. eels
  32. project runway s12e14
  33. votre majeste
  34. gta vice city
  35. robocop 2014
  36. zafira
  37. 12 year desi mms
  38. addison belgium
  39. all sex and xxx said
  40. bf video hinde galsmp4
  41. banglachoti
  42. big cock in ass images
  43. full hd sexy wallpapers
  44. georgie lyall 29.07.14
  45. kamasutra 2 full hd movi
All Top Searches

Top IsoHunters

Sign up now to comment and upload torrent!