Torrent! Torrente! Le Torrrent! Strom! धारा! سيل! Bystřina! Торрент! 急流! χείμαρος! 激流! জলস্রোত!

Gulaab Gang

Gulaab Gang 2014 Hindi Movies SCamRip AC3 with Sample ~ ☻rDX☻ torrent

Gulaab Gang full info

Download Gulaab Gang in other resolution:

Download torrent
5

Do you like this torrent?

Yes No

Torrent Info:

							
Gulaab Gang 2014 Hindi Movies SCamRip AC3 with Sample ~ ☻rDX☻Screen Shotshttp://moviesreview.cu.cc/2014/3/GulaabGang/1.htmlhttp://moviesreview.cu.cc/2014/3/GulaabGang/2.htmlhttp://moviesreview.cu.cc/2014/3/GulaabGang/3.htmlhttp://moviesreview.cu.cc/2014/3/GulaabGang/4.htmlhttp://moviesreview.cu.cc/2014/3/GulaabGang/5.htmlhttp://moviesreview.cu.cc/2014/3/GulaabGang/6.htmlhttp://moviesreview.cu.cc/2014/3/GulaabGang/7.htmlhttp://moviesreview.cu.cc/2014/3/GulaabGang/8.htmlhttp://moviesreview.cu.cc/2014/3/GulaabGang/9.htmlhttp://moviesreview.cu.cc/2014/3/GulaabGang/10.htmlAll rDX torrents are Seeding From the 1Gbps Seedbox 24X7
Format : Matroska
Format version : Version 4 / Version 2
File size : 697 MiB
Duration : 2h 4mn
Overall bit rate mode : Variable
Overall bit rate : 780 Kbps
Movie name : Gulaab Gang 2014 Hindi Movies SCamRip AC3 ~ rDX ~
Video
ID : 1
Format : MPEG Video
Format version : Version 2
Format profile : Main@Main
Format settings, BVOP : No
Format settings, Matrix : Default
Codec ID : V_MPEG2
Codec ID/Info : MPEG 1 or 2 Video
Duration : 2h 4mn
Bit rate mode : Variable
Bit rate : 572 Kbps
Maximum bit rate : 9 008 Kbps
Width : 352 pixels
Height : 288 pixels
Display aspect ratio : 4:3
Frame rate mode : Constant
Frame rate : 25.000 fps
Standard : PAL
Color space : YUV
Chroma subsampling : 4:2:0
Bit depth : 8 bits
Compression mode : Lossy
Bits/(Pixel*Frame) : 0.226
Stream size : 511 MiB (73%)
Title : ~ rDX ~
Default : Yes
Forced : No
Audio
ID : 2
Format : AC-3
Format/Info : Audio Coding 3
Mode extension : CM (complete main)
Format settings, Endianness : Big
Codec ID : A_AC3
Duration : 2h 4mn
Bit rate mode : Constant
Bit rate : 192 Kbps
Channel(s) : 2 channels
Channel positions : Front: L R
Sampling rate : 48.0 KHz
Bit depth : 16 bits
Compression mode : Lossy
Stream size : 171 MiB (25%)
Title : ~ rDX ~
Default : Yes
Forced : No
						
Torrent created at 2014-03-07 21:53:03

Torrent search:

movies 2014 ac3 hindi
Info hash: bf67afe81de09a3b9821db36758d5592f8aafbb0

Related torrents for "Gulaab Gang 2014 Hindi Movies SCamRip AC3 with Sample ~ ☻rDX☻"

Related torrents for "Gulaab Gang 2014 Hindi Movies SCamRip AC3 with Sample ~ ☻rDX☻"