Total Siyapaa

Total Siyapaa 2014 Hindi Movies SCamRip with Sample ~ ☻rDX☻ torrent

Total Siyapaa full info

Download Total Siyapaa in other resolution:

Download torrent
5

Do you like this torrent?

Yes No

Torrent Info:

Total Siyapaa 2014 Hindi Movies SCamRip with Sample ~ ☻rDX☻
Screen Shots Gallary : 
All rDX torrents are Seeding From the 1Gbps Seedbox 24X7
Format : Matroska
Format version : Version 4 / Version 2
File size : 697 MiB
Duration : 1h 43mn
Overall bit rate mode : Variable
Overall bit rate : 938 Kbps
Movie name : Total Siyapaa 2014 Hindi Movies SCamRip ~ rDX ~
Video
ID : 1
Format : MPEG Video
Format version : Version 2
Format profile : Main@Main
Format settings, BVOP : No
Format settings, Matrix : Default
Codec ID : V_MPEG2
Codec ID/Info : MPEG 1 or 2 Video
Duration : 1h 43mn
Bit rate mode : Variable
Bit rate : 791 Kbps
Maximum bit rate : 9 672 Kbps
Width : 352 pixels
Height : 288 pixels
Display aspect ratio : 4:3
Frame rate mode : Constant
Frame rate : 25.000 fps
Standard : PAL
Color space : YUV
Chroma subsampling : 4:2:0
Bit depth : 8 bits
Compression mode : Lossy
Bits/(Pixel*Frame) : 0.312
Stream size : 588 MiB (84%)
Title : ~ rDX ~
Default : Yes
Forced : No
Audio
ID : 2
Format : MPEG Audio
Format version : Version 1
Format profile : Layer 2
Codec ID : A_MPEG/L2
Codec ID/Hint : MP2
Duration : 1h 43mn
Bit rate mode : Constant
Bit rate : 128 Kbps
Channel(s) : 2 channels
Sampling rate : 48.0 KHz
Compression mode : Lossy
Stream size : 95.1 MiB (14%)
Title : ~ rDX ~
Default : Yes
Forced : No
Torrent created at 2014-03-07 22:51:03

Torrent search:

movies 2014 hindi
Info hash: 7e49cb3befb46c3ae07eceb8fdc33fc1828781f1

Related torrents for "Total Siyapaa 2014 Hindi Movies SCamRip with Sample ~ ☻rDX☻"

Related torrents for "Total Siyapaa 2014 Hindi Movies SCamRip with Sample ~ ☻rDX☻"