A lot of rapes and murders here.

Playboy TV- Swing torrent

Seeders: 11 Leechers: 25 10.36 GB


Tags:

adult  |  porno  |  xxx  |  sex

Files:

Playboy TV- Swing//Torrent Downloaded From ExtraTorrent.com.txt 353 B
Playboy TV- Swing//Season 2/PlayboyTV- Swing - Season 2, Ep. 4.MP4 689.61 MB
Playboy TV- Swing//Season 2/PlayboyTV- Swing - Season 2, Ep. 3.MP4 697.38 MB
10.36 GB in 21 files. Torrent created at 2013-07-01 07:08:54

Torrent Info:

warning. adult imagewarning. adult image warning. adult image warning. adult image warning. adult image warning. adult image warning. adult image warning. adult image warning. adult image warning. adult image warning. adult image
What happens when committed men and women embrace the 'lifestyle' filled with forbidden pleasures, free love, and extra partners in the bedroom! Every week we'll be inviting a new couple to our weekend retreat and mixing them with veteran swingers and trained sex experts.
Format : MPEG-4
Format profile : Base Media
Codec ID : isom
Overall bit rate : 2 009 Kbps
Encoded date : UTC 2012-06-07 22:49:35
Tagged date : UTC 2012-06-07 22:49:35
Writing application : Lavf53.24.0Video
ID : 1
Format : AVC
Format/Info : Advanced Video Codec
Format profile : Main@L3.0
Format settings, CABAC : Yes
Format settings, ReFrames : 4 frames
Codec ID : avc1
Codec ID/Info : Advanced Video Coding
Duration : 48mn 0s
Bit rate : 1 872 Kbps
Width : 768 pixels
Height : 432 pixels
Display aspect ratio : 16:9
Frame rate mode : Constant
Frame rate : 29.970 fps
Color space : YUV
Chroma subsampling : 4:2:0
Bit depth : 8 bits
Scan type : Progressive
Bits/(Pixel*Frame) : 0.188
Stream size : 643 MiB (93%)
Writing library : x264 core 118 r2085 8a62835
Encoding settings : cabac=1 / ref=3 / deblock=1:0:0 / analyse=0x1:0x111 / me=hex / subme=5 / psy=1 / psy_rd=1.00:0.00 / mixed_ref=1 / me_range=16 / chroma_me=1 / trellis=1 / 8x8dct=0 / cqm=0 / deadzone=21,11 / fast_pskip=1 / chroma_qp_offset=0 / threads=6 / sliced_threads=0 / nr=0 / decimate=1 / interlaced=0 / bluray_compat=0 / constrained_intra=0 / bframes=3 / b_pyramid=2 / b_adapt=1 / b_bias=0 / direct=1 / weightb=1 / open_gop=0 / weightp=2 / keyint=60 / keyint_min=25 / scenecut=40 / intra_refresh=0 / rc_lookahead=40 / rc=2pass / mbtree=1 / bitrate=1872 / ratetol=1.0 / qcomp=0.60 / qpmin=10 / qpmax=51 / qpstep=4 / cplxblur=20.0 / qblur=0.5 / ip_ratio=1.40 / aq=1:1.00
Language : English
Encoded date : UTC 2012-06-07 22:49:35
Tagged date : UTC 2012-06-07 22:49:35
Audio
ID : 2
Format : AAC
Format/Info : Advanced Audio Codec
Format profile : LC
Codec ID : 40
Duration : 48mn 0s
Bit rate mode : Constant
Bit rate : 128 Kbps
Channel(s) : 2 channels
Channel positions : Front: L R
Sampling rate : 44.1 KHz
Compression mode : Lossy
Delay relative to video : 67ms
Stream size : 43.9 MiB (6%)
Language : English
Encoded date : UTC 2012-06-07 22:49:35
Tagged date : UTC 2012-06-07 22:49:35
Info hash: a631db983b7464dd9e512e5bd6beabe3cd193fb4

Related torrents for "Playboy TV- Swing"