Sign up | Log in
  Sites: 555   •   Trackers: 235,759   •   Active Torrents: 13,719,378   •   Files: 285.36M   •   Size: 17,362.00 TB   •   Peers: 43.30M  
 » 
 » 
Pitbull - Timber ft. Kesha  » 
Summary

Download in BitLord   Download .torrent  
or download .torrent from:


Rating Up (0) | Down (1)

You have to login to report as fake.

Trackers:     (aggregated from BitTorrent sites everywhere for reliability and speed)

Directory: Pitbull - Timber ft. Kesha
Files:

Pitbull - Timber ft. Kesha/Pitbull - Timber ft. Kesha.mp4 38.34 MB
Pitbull - Timber ft. Kesha/Pitbull - Timber ft. Kesha.srt 2.88 KB

38.34 MB in 2 files. Torrent created at 2013-11-26 09:02:01.

Description:

							

Format : MPEG-4
Format profile : Base Media
Codec ID : isom
File size : 38.3 MiB
Duration : 3mn 34s
Overall bit rate mode : Variable
Overall bit rate : 1 502 Kbps
Encoded date : UTC 2013-11-24 17:48:19
Tagged date : UTC 2013-11-24 17:48:19
Writing application : Lavf54.63.104

ID : 1
Format : AVC
Format/Info : Advanced Video Codec
Format profile : Main@L3.0
Format settings, CABAC : Yes
Format settings, ReFrames : 1 frame
Codec ID : avc1
Codec ID/Info : Advanced Video Coding
Duration : 3mn 34s
Bit rate : 1 421 Kbps
Width : 852 pixels
Height : 480 pixels
Display aspect ratio : 16:9
Frame rate mode : Constant
Frame rate : 23.976 fps
Color space : YUV
Chroma subsampling : 4:2:0
Bit depth : 8 bits
Scan type : Progressive
Bits/(Pixel*Frame) : 0.145
Stream size : 35.4 MiB (92%)
Writing library : x264 core 129
Encoded date : UTC 2013-11-24 17:48:19
Tagged date : UTC 2013-11-24 17:48:19

ID : 2
Format : AAC
Format/Info : Advanced Audio Codec
Format profile : LC
Codec ID : 40
Duration : 3mn 34s
Duration_FirstFrame : 70ms
Bit rate mode : Variable
Bit rate : 109 Kbps
Maximum bit rate : 176 Kbps
Channel(s) : 2 channels
Channel positions : Front: L R
Sampling rate : 44.1 KHz
Compression mode : Lossy
Stream size : 2.78 MiB (7%)
Encoded date : UTC 2013-11-24 17:48:19
Tagged date : UTC 2013-11-24 17:48:19
						

info_hash: dea457f944e4e0bf3742a8805eb51bc2d9d27f88 (?)


 

Related content from IMDB

Related torrents for 'Pitbull - Timber ft. Kesha'