That awkward moment, when the movie is called That Awkward moment.

Bro's.Before.Ho's.2013.720p.BRRip.x264.DTS.HD torrent

FAKE!
Missing Plug-in Torrent magnet is missing 
X
 

Torrent search:

movies  |  2013  |  dts  |  720p  |  hd  |  x264  |  bdrip

Files:

Bro's.Before.Ho's.2013.720p.BRRip.x264.DTS.HD/Dmt Nfo.txt 1.68 KB
Bro's.Before.Ho's.2013.720p.BRRip.x264.DTS.HD/Torrent Downloaded From downloadhindimovies.in.txt 1.68 KB
Bro's.Before.Ho's.2013.720p.BRRip.x264.DTS.HD/Bro's.Before.Ho's.2013.720p.BRRip.x264.DTS.HD.avi 10 MB
776.01 MB in 7 files. Torrent created at 2013-12-04 17:18:22

Torrent Info:

Format                           : AVI
Format/Info                      : Audio Video Interleave
Format profile                   : OpenDML
Overall bit rate                 : 1 800 Kbps
Writing application              : VirtualDubMod 1.5.10.2 (build 2542/release)
Writing library                  : VirtualDubMod build 2542/release

Video

Format                           : MPEG-4 Visual
Format settings, BVOP            : Yes
Format settings, QPel            : No
Format settings, Matrix          : Default (MPEG)
Codec ID                         : x264
Codec ID/Hint                    : x264
Bit rate                         : 1 411 Kbps
Width                            : 1280 pixels
Height                           : 720 pixels
Display aspect ratio             : 16:9
Frame rate                       : 29.97 fps
Resolution                       : 24 bits
Colorimetry                      : 4:2:0
Scan type                        : Progressive
Bits/(Pixel*Frame)               : 0.338
Stream size                      : 1.03 GiB (78%)

Audio

Format                           : AC-3
Format/Info                      : Audio Coding 3
Codec ID                         : 2000
Bit rate mode                    : Constant
Bit rate                         : 384 Kbps
Channel(s)                       : 6 channels
Channel positions                : Front: L C R, Surround: L R, LFE
Sampling rate                    : 48.0 KHz
Stream size                      : 287 MiB (21%)
Alignment                        : Aligned on interleaves
Interleave, duration             : 64 ms (1.53 video frames)
Interleave, preload duration     : 192 ms
Info hash: 8a027c70e8bff657c1ff6a6cf7aa793d8fb8ac0d

Related torrents for "Bro's.Before.Ho's.2013.720p.BRRip.x264.DTS.HD"