Torrent! Torrente! Le Torrrent! Strom! धारा! سيل! Bystřina! Торрент! 急流! χείμαρος! 激流! জলস্রোত!

Beyonce - Drunk in Love (feat. Jay Z).m4v torrent

Download torrent Download
1

Do you like this torrent?

Yes No

Torrent Info:

Beyonce - Drunk in Love - (feat. Jay Z).2013
From The New Album – Beyonce – BEYONCE.2013
Format                           : MPEG-4
Codec ID                         : M4V
File size                        : 83.5 MiB
Duration                         : 6mn 21s
Overall bit rate                 : 1 836 Kbps
Movie name                       : Drunk in Love (feat. Jay Z)
Album                            : BEYONCE
Album/Performer                  : Beyonce
Track name/Position              : 1
Track name/Total                 : 1
Performer                        : Beyonce
Genre                            : R&B
Recorded date                    : 2013
Video
ID                               : 1
Format                           : AVC
Format/Info                      : Advanced Video Codec
Format profile                   : Baseline@L3.0
Format settings, CABAC           : No
Format settings, ReFrames        : 1 frame
Format settings, GOP             : M=1, N=53
Codec ID                         : avc1
Codec ID/Info                    : Advanced Video Coding
Duration                         : 6mn 21s
Bit rate mode                    : Variable
Bit rate                         : 1 579 Kbps
Width                            : 640 pixels
Height                           : 480 pixels
Display aspect ratio             : 16:9
Frame rate mode                  : Constant
Frame rate                       : 23.976 fps
Color space                      : YUV
Chroma subsampling               : 4:2:0
Bit depth                        : 8 bits
Scan type                        : Progressive
Bits/(Pixel*Frame)               : 0.214
Stream size                      : 71.8 MiB (86%)
Language                         : English
Audio
ID                               : 2
Format                           : AAC
Format/Info                      : Advanced Audio Codec
Format profile                   : LC
Codec ID                         : 40
Duration                         : 6mn 21s
Bit rate mode                    : Constant
Bit rate                         : 256 Kbps
Channel(s)                       : 2 channels
Channel positions                : Front: L R
Sampling rate                    : 44.1 KHz
Compression mode                 : Lossy
Stream size                      : 11.5 MiB (14%)
Language                         : English
Torrent created at 2013-12-14 01:10:54

Torrent search:

music
Info hash: 31147d8160a587f56680d9a0e1e965d7ba25b851

Related torrents for "Beyonce - Drunk in Love (feat. Jay Z).m4v"

Related torrents for "Beyonce - Drunk in Love (feat. Jay Z).m4v"

Top Searches

  1. rags 2012
  2. yalom's cure
  3. matrimonio all'italiana
  4. gold oro
  5. cradle of filth
  6. mary kom
  7. playboy in prova
  8. edge of tomorrow senza domani
  9. the new daughter 2009
  10. denzil washington
  11. 101 reykjavík
  12. johnny cash
  13. ghosts
  14. hit by lightning
  15. the last trip
  16. friday 1995
  17. lennox elizabeth
  18. terrible love
  19. lola auf der erbse
  20. bachelor night 2014
  21. sapphires are an earls best friend
  22. questione di tempo
  23. shemales
  24. volcanic planet
  25. irish music
  26. dawat e ishq full movie
  27. hits
  28. okie down
  29. hollyrandall
  30. crescendo! the power of music
  31. internet downold manager
  32. bear grylls
  33. mockingbird
  34. milfs like it black
  35. 1080p publichd
  36. 2013 epub collection adult and erotic
  37. 7dog
  38. doubl down xxx
  39. eminem
  40. hentay pics pack
  41. sex tape
  42. animaldogsexporn
  43. bdxxx
  44. blonde ass hd
  45. boin complete edition
All Top Searches

Top IsoHunters

Sign up now to comment and upload torrent!