Tip

Have a problem with our website? Contact us and we will help you!

Sergeant York (1941) Colorized torrent

Download torrent Download
5

Do you like this torrent?

Yes No

Torrent Info:

							
General
Complete name : Colorized Sergeant York (1941) Colorized.avi
Format : AVI
Format/Info : Audio Video Interleave
File size : 1.06 GiB
Duration : 2h 13mn
Overall bit rate mode : Variable
Overall bit rate : 1 141 Kbps
Video
ID : 0
Format : MPEG-4 Visual
Format settings, BVOP : 1
Format settings, QPel : No
Format settings, GMC : No warppoints
Format settings, Matrix : Default (H.263)
Muxing mode : Packed bitstream
Codec ID : DX50
Codec ID/Hint : DivX 5
Duration : 2h 13mn
Bit rate : 1 006 Kbps
Width : 640 pixels
Height : 480 pixels
Display aspect ratio : 4:3
Frame rate : 29.970 fps
Color space : YUV
Chroma subsampling : 4:2:0
Bit depth : 8 bits
Scan type : Progressive
Compression mode : Lossy
Bits/(Pixel*Frame) : 0.109
Stream size : 959 MiB (88%)
Title : Video
Writing library : DivX 5.2.0 (DrDivX 105) (UTC 2004-07-17)
Audio
ID : 1
Format : MPEG Audio
Format version : Version 1
Format profile : Layer 3
Mode : Joint stereo
Mode extension : MS Stereo
Codec ID : 55
Codec ID/Hint : MP3
Duration : 2h 13mn
Bit rate mode : Variable
Bit rate : 128 Kbps
Channel(s) : 2 channels
Sampling rate : 44.1 KHz
Compression mode : Lossy
Stream size : 116 MiB (11%)
Alignment : Aligned on interleaves
Interleave, duration : 26 ms (0.78 video frame)
Interleave, preload duration : 479 ms
Title : Audio
						
Torrent created at 2014-01-03 22:31:05

Torrent search:

movies 1941
Info hash: c2ba4550f232af41932c3255f14d489f7e4f2f1e

Related torrents for "Sergeant York (1941) Colorized"

Related torrents for "Sergeant York (1941) Colorized"

Top Searches

  1. sergeant york
  2. sergeant york 1941
  3. fbb
  4. isabella madison
  5. 2014
  6. david eddings audio books
  7. chatterbox
  8. dumb and
  9. time
  10. lolita 2000
  11. total embarrassment mood pictures
  12. g├╝eros
  13. digital photography
  14. lounge compilation
  15. baker street gerry rafferty
  16. gopro
  17. acrobat reader
  18. breaking bad software
  19. acronis true image
  20. dracula
  21. va the trevor nelson collection 2
  22. the idol wasp
  23. nickelback
  24. czech
  25. il giovane favoloso
  26. i guardiani della galassia
  27. sniper ghost
  28. auto kitchen
  29. shkd 536
  30. gaggers
  31. limp bizkit
  32. kinect sports rivals
  33. aagadu movie in hindi dubbed in kickass
  34. ebooks mobi
  35. hits
  36. les gardiens de la galaxie french
  37. if there is hell below
  38. www.phonerotica.com
  39. sex tape
  40. desi 10th clas girls nude imges
  41. koothara
  42. kamshutra full movies
  43. milf hunter video: pussy wedge
  44. mistress lana violet
  45. phonerotica.com
All Top Searches

Top IsoHunters

Sign up now to comment and upload torrent!