imdb
rating

 
The Wolf of Wall Street

The Wolf of Wall Street (2013)

Comedy, Crime, Drama

Full description

The Wolf Of Wall Street 2013 720p DVDScr x264 6CH Pimp4003 torrent Verified

Size 4.275 GB   363 seeders     Added 2014-01-10 08:01:03

Direct download
1.9
							
PIMP4003 AND PIMPRG PRESENTS
The Wolf Of Wall Street 2013 720p DVDScr x264 6CH Pimp4003http://www.imdb.com/title/tt0993846/
Based on the true story of Jordan Belfort, from his rise to a wealthy stockbroker living the high life to his fall involving crime, corruption and the federal government.
Director: Martin Scorsese
Writers: Terence Winter (screenplay), Jordan Belfort (book)
Stars: Leonardo DiCaprio, Jonah Hill, Margot Robbie | See full cast and crew »
Genre: Comedy | Drama
File Size: 3.98GB
Source: EVIL-DEAD
Language: ENGLISH
Video
ID : 2
Format : AVC
Format/Info : Advanced Video Codec
Format profile : Baseline@L3.0
Format settings, CABAC : No
Format settings, ReFrames : 1 frame
Muxing mode : Container profile=Baseline@4.1
Codec ID : avc1
Codec ID/Info : Advanced Video Coding
Duration : 2h 59mn
Bit rate : 3 037 Kbps
Width : 1 280 pixels
Height : 720 pixels
Display aspect ratio : 16:9
Frame rate mode : Constant
Frame rate : 23.976 fps
Original frame rate : 23.000 fps
Color space : YUV
Chroma subsampling : 4:2:0
Bit depth : 8 bits
Scan type : Progressive
Bits/(Pixel*Frame) : 0.137
Stream size : 3.81 GiB (96%)
Writing library : Ä
Language : English
Audio
ID : 1
Format : AAC
Format/Info : Advanced Audio Codec
Format profile : LC
Codec ID : 40
Duration : 2h 59mn
Bit rate mode : Variable
Bit rate : 128 Kbps
Maximum bit rate : 217 Kbps
Channel(s) : 2 channels
Channel positions : Front: L R
Sampling rate : 48.0 KHz
Compression mode : Lossy
Stream size : 165 MiB (4%)
Language : English
ALWAYS ON SEED BOX
GREETZ TO PIMPRG AND ALL OTHER GROUPS
Pimp4003 | SUJAIDR | PIMPRG | JUNAIDZIA | RICKYKT | LOKKIODDIN | SCENEDL | Ali1997 | AND ALL OTHER P2P AND SCENE GROUPS
The Wolf Of Wall Street 2013 720p DVDScr x264 6CH Pimp4003/[WWW.PIMP4003.SE] The Wolf Of Wall Street 2013 720p DVDScr x264 6CH Pimp4003.mp4 4.275 GB
The Wolf Of Wall Street 2013 720p DVDScr x264 6CH Pimp4003/Torrent downloaded from pimp4003 torrents at BTS.to.txt 120 B
The Wolf Of Wall Street 2013 720p DVDScr x264 6CH Pimp4003/Torrent Downloaded From Pimp4003.se.txt 58 B
Geathering some info...
Oooops. To post comments, please Log in first.
Hash c7c4a3b9decd4ef5a462099ce121ab799f78aaf5

Related torrents for "The Wolf Of Wall Street 2013 720p DVDScr x264 6CH Pimp4003"

Torrent search:

movies 2013 720p hd x264 dvdscr