imdb
rating

5.6
The Magnificent Seven Ride!

The Magnificent Seven Ride! (1972)

Action, Western

Full description
quality   dvdrip hd bd x264 fullhd h264

The Magnificent Seven Ride 1972 BRRip XviD MP3-RARBG

Size 1.359 GB   0 seeders     Added 2016-03-28 05:09:02

Stream torrent
Starting‥ You need BitLord! Get it from BitLord.com
To download or stream you need BitLord. Visit them at BitLord.com
https://rarbg.to
The.Magnificent.Seven.Ride.1972.BRRip.XviD.MP3-RARBG
Screens :
Mediainfo :
Video
ID : 0
Format : MPEG-4 Visual
Format profile : Simple@L5
Format settings, BVOP : No
Format settings, QPel : No
Format settings, GMC : No warppoints
Format settings, Matrix : Default (H.263)
Codec ID : XVID
Codec ID/Hint : XviD
Duration : 1h 40mn
Bit rate : 1 599 Kbps
Width : 720 pixels
Height : 390 pixels
Display aspect ratio : 1.85:1
Frame rate : 23.976 fps
Color space : YUV
Chroma subsampling : 4:2:0
Bit depth : 8 bits
Scan type : Progressive
Compression mode : Lossy
Bits/(Pixel*Frame) : 0.238
Stream size : 1.12 GiB (89%)
Title : RARBG.COM -
The.Magnificent.Seven.Ride.1972.BRRip.XviD.MP3-RARBG
Writing library : Lavc56.60.100
Audio
ID : 1
Format : MPEG Audio
Format version : Version 1
Format profile : Layer 3
Mode : Joint stereo
Mode extension : MS Stereo
Codec ID : 55
Codec ID/Hint : MP3
Duration : 1h 40mn
Bit rate mode : Constant
Bit rate : 192 Kbps
Channel(s) : 2 channels
Sampling rate : 48.0 KHz
Compression mode : Lossy
Stream size : 138 MiB (11%)
Alignment : Aligned on interleaves
Interleave, duration : 24 ms (0.58 video frame)
Interleave, preload duration : 24 ms
Title : RARBG.COM -
The.Magnificent.Seven.Ride.1972.BRRip.XviD.MP3-RARBG
Writing library : LAME3.99.5
The.Magnificent.Seven.Ride.1972.BRRip.XviD.MP3-RARBG/RARBG.COM.avi 1.191 MB
The.Magnificent.Seven.Ride.1972.BRRip.XviD.MP3-RARBG/RARBG.COM.txt 34 B
The.Magnificent.Seven.Ride.1972.BRRip.XviD.MP3-RARBG/The.Magnificent.Seven.Ride.1972.BRRip.XviD.MP3-RARBG.avi 1.358 GB
Gathering some info...

Register and log in Isohunt and see no captcha anymore!

4000 symbols left
Hash 65c9a277abe5168c735100ca70897a25fdafa4f1

Related torrents for "The Magnificent Seven Ride 1972 BRRip XviD MP3-RARBG"

Torrent search:

1972 bd