imdb
rating

7.7
Brokeback Mountain

Brokeback Mountain (2005)

Drama, Romance

Full description
quality   x264 fullhd bd dvdrip hd

Brokeback Mountain 2005 (1080p Bluray x265 HEVC 10bit AAC 5.1 Tigole)

Size 2.723 GB   9 seeders     Added 2016-07-01 15:11:03

Stream torrent
Starting‥ You need BitLord! Get it from 1BitLord.com
To download or stream you need BitLord. Visit them at BitLord.com
Brokeback Mountain 2005 in 1080p, encoded with x265 in HEVC and AAC
5.1 English, with English and German subtitles!
Encoded using the time consuming 2 pass, 10 bit color at 2000 kbps,
from a Blu-ray source, for the highest quality possible.
Media
Information
General
Unique ID : 224103186289264468171419043949326596053
(0xA898B426628F0E4CA02C3B04AD2F77D5)
Complete name : Brokeback Mountain 2005 (1080p x265 10bit
Tigole).mkv
Format : Matroska
Format version : Version 4 / Version 2
File size : 2.21 GiB
Duration : 2h 14mn
Overall bit rate : 2 358 Kbps
Movie name : Brokeback Mountain
Encoded date : UTC 2016-07-01 02:05:01
Writing application : mkvmerge v9.2.0 ('Photograph') 64bit
Writing library : libebml v1.3.3 + libmatroska v1.4.4
Video
ID : 1
Format : HEVC
Format/Info : High Efficiency Video Coding
Format profile : Main 10@L4@Main
Codec ID : V_MPEGH/ISO/HEVC
Duration : 2h 14mn
Bit rate : 2 023 Kbps
Width : 1 920 pixels
Height : 1 040 pixels
Display aspect ratio : 1.85:1
Frame rate mode : Constant
Frame rate : 23.976 (24000/1001) fps
Color space : YUV
Chroma subsampling : 4:2:0
Bit depth : 10 bits
Bits/(Pixel*Frame) : 0.042
Stream size : 1.90 GiB (86%)
Writing library : x265 1.9+200-6098ba3e0cf16b11: 10bit
Encoding settings : wpp / ctu=64 / min-cu-size=8 / max-tu-size=32 /
tu-intra-depth=1 / tu-inter-depth=1 / me=1 / subme=2 / merange=57 /
no-rect / no-amp / max-merge=2 / temporal-mvp / no-early-skip /
recursion-skip / rdpenalty=0 / no-tskip / no-tskip-fast /
strong-intra-smoothing / no-lossless / no-cu-lossless /
no-constrained-intra / no-fast-intra / open-gop /
no-temporal-layers / interlace=0 / keyint=250 / min-keyint=23 /
scenecut=40 / rc-lookahead=20 / lookahead-slices=6 / bframes=4 /
bframe-bias=0 / b-adapt=2 / ref=3 / limit-refs=3 / no-limit-modes /
weightp / no-weightb / aq-mode=1 / qg-size=32 / aq-strength=1.00 /
cbqpoffs=0 / crqpoffs=0 / rd=3 / psy-rd=2.00 / rdoq-level=0 /
psy-rdoq=0.00 / no-rd-refine / signhide / deblock=0:0 / sao /
no-sao-non-deblock / b-pyramid / cutree / no-intra-refresh / rc=2 /
pass / bitrate=2022 / qcomp=0.60 / qpmin=0 / qpmax=51 / qpstep=4 /
cplxblur=20.0 / qblur=0.5 / ipratio=1.40 / pbratio=1.30
Default : Yes
Forced : No
Audio
ID : 2
Format : AAC
Format/Info : Advanced Audio Codec
Format profile : LC
Codec ID : A_AAC
Duration : 2h 14mn
Bit rate : 321 Kbps
Channel(s) : 6 channels
Channel positions : Front: L C R, Side: L R, LFE
Sampling rate : 48.0 KHz
Frame rate : 46.875 fps (1024 spf)
Compression mode : Lossy
Delay relative to video : 20ms
Stream size : 308 MiB (14%)
Language : English
Default : No
Forced : No
Text #1
ID : 3
Format : VobSub
Muxing mode : zlib
Codec ID : S_VOBSUB
Codec ID/Info : Picture based subtitle format used on DVDs
Duration : 2h 11mn
Bit rate : 4 080 bps
Count of elements : 937
Stream size : 3.84 MiB (0%)
Language : German
Default : No
Forced : No
Text #2
ID : 4
Format : VobSub
Muxing mode : zlib
Codec ID : S_VOBSUB
Codec ID/Info : Picture based subtitle format used on DVDs
Duration : 2h 5mn
Bit rate : 4 992 bps
Count of elements : 1063
Stream size : 4.47 MiB (0%)
Language : German
Default : No
Forced : No
Text #3
ID : 5
Format : VobSub
Muxing mode : zlib
Codec ID : S_VOBSUB
Codec ID/Info : Picture based subtitle format used on DVDs
Duration : 2h 6mn
Bit rate : 4 009 bps
Count of elements : 881
Stream size : 3.62 MiB (0%)
Language : English
Default : No
Forced : No
Menu
00:00:00.000 : en:Chapter 01
00:07:08.761 : en:Chapter 02
00:12:25.828 : en:Chapter 03
00:20:07.122 : en:Chapter 04
00:28:53.523 : en:Chapter 05
00:34:41.204 : en:Chapter 06
00:42:51.402 : en:Chapter 07
00:52:09.292 : en:Chapter 08
01:00:30.543 : en:Chapter 09
01:07:26.375 : en:Chapter 10
01:16:11.275 : en:Chapter 11
01:22:37.285 : en:Chapter 12
01:32:25.665 : en:Chapter 13
01:40:36.572 : en:Chapter 14
01:51:59.629 : en:Chapter 15
01:55:32.884 : en:Chapter 16



Source
Information
Unique ID :
221024561212210829554199828770808511497
(0xA647C836F16CB70CE21D8F33F079BC09)
Complete name : Brokeback_Mountain_t00_REMUX.mkv
File size : 29.0 GiB
Duration : 2h 14mn
Overall bit rate : 30.9 Mbps
Brokeback Mountain 2005 (1080p Bluray x265 HEVC 10bit AAC 5.1 Tigole)/Brokeback Mountain 2005 (1080p x265 10bit Tigole).mkv 2.378 GB
Brokeback Mountain 2005 (1080p Bluray x265 HEVC 10bit AAC 5.1 Tigole)/Featurettes/A Groundbreaking Success.mkv 52.208 MB
Brokeback Mountain 2005 (1080p Bluray x265 HEVC 10bit AAC 5.1 Tigole)/Featurettes/Impressions from the Film.mkv 5.243 MB
Gathering some info...

Register and log in Isohunt and see no captcha anymore!

4000 symbols left
Hash 7d5ba7a5c06a89fe7c488ac2250f55f73d5faf25

Related torrents for "Brokeback Mountain 2005 (1080p Bluray x265 HEVC 10bit AAC 5.1 Tigole)"

Torrent search:

2005 fullhd bd