imdb
rating

5.5
Flight of the Storks

Flight of the Storks (2013)

Action, Crime, Mystery

Full description
quality   h264 hd bd

Flight of the Storks 2012 720p BluRay H264 AAC-RARBG Verified

Size 1.618 GB   0 seeders     Added 2016-07-13 03:12:04

Stream torrent
Starting‥ You need BitLord! Get it from BitLord.com
10
To download or stream you need BitLord. Visit them at BitLord.com
https://rarbg.to
Flight.of.the.Storks.2012.720p.BluRay.H264.AAC-RARBG
Screens :
Mediainfo :
Video
ID : 1
Format : AVC
Format/Info : Advanced Video Codec
Format profile : High@L4.1
Format settings, CABAC : Yes
Format settings, ReFrames : 4 frames
Codec ID : avc1
Codec ID/Info : Advanced Video Coding
Duration : 2h 4mn
Bit rate : 1 500 Kbps
Width : 1 280 pixels
Height : 534 pixels
Display aspect ratio : 2.40:1
Frame rate mode : Constant
Frame rate : 25.000 fps
Color space : YUV
Chroma subsampling : 4:2:0
Bit depth : 8 bits
Scan type : Progressive
Bits/(Pixel*Frame) : 0.088
Stream size : 1.30 GiB (87%)
Writing library : x264 core 148 r2597M e86f3a1
Encoding settings : cabac=1 / ref=4 / deblock=1:-1:-1 /
analyse=0x3:0x113 / me=umh / subme=9 / psy=1 / psy_rd=1.00:0.15 /
mixed_ref=1 / me_range=24 / chroma_me=1 / trellis=2 / 8x8dct=1 /
cqm=0 / deadzone=21,11 / fast_pskip=1 / chroma_qp_offset=-3 /
threads=32 / lookahead_threads=4 / sliced_threads=0 / nr=0 /
decimate=1 / interlaced=0 / bluray_compat=0 / constrained_intra=0 /
bframes=3 / b_pyramid=2 / b_adapt=2 / b_bias=0 / direct=3 /
weightb=1 / open_gop=0 / weightp=2 / keyint=250 / keyint_min=25 /
scenecut=40 / intra_refresh=0 / rc_lookahead=50 / rc=2pass /
mbtree=1 / bitrate=1500 / ratetol=1.0 / qcomp=0.60 / qpmin=0 /
qpmax=69 / qpstep=4 / cplxblur=20.0 / qblur=0.5 / vbv_maxrate=31250
/ vbv_bufsize=31250 / nal_hrd=none / filler=0 / ip_ratio=1.40 /
aq=3:1.00
Encoded date : UTC 2016-07-12 22:02:48
Tagged date : UTC 2016-07-12 22:02:48
Audio
ID : 2
Format : AAC
Format/Info : Advanced Audio Codec
Format profile : LC
Codec ID : 40
Duration : 2h 4mn
Bit rate mode : Constant
Bit rate : 224 Kbps
Channel(s) : 2 channels
Channel(s)_Original : 6 channels
Channel positions : Front: L C R, Side: L R, LFE
Sampling rate : 48.0 KHz
Frame rate : 46.875 fps (1024 spf)
Compression mode : Lossy
Stream size : 200 MiB (13%)
Language : English
Default : Yes
Alternate group : 1
Encoded date : UTC 2016-07-12 22:02:48
Tagged date : UTC 2016-07-12 22:02:48
Flight.of.the.Storks.2012.720p.BluRay.H264.AAC-RARBG/Flight.of.the.Storks.2012.720p.BluRay.H264.AAC-RARBG.mp4 1.617 GB
Flight.of.the.Storks.2012.720p.BluRay.H264.AAC-RARBG/Flight.of.the.Storks.2012.720p.BluRay.H264.AAC-RARBG.nfo 4 KB
Flight.of.the.Storks.2012.720p.BluRay.H264.AAC-RARBG/RARBG.COM.mp4 1.017 MB
Gathering some info...

Register and log in Isohunt and see no captcha anymore!

4000 symbols left
Hash d0936138a497b898af27d55e79de0a3fcf119408

Related torrents for "Flight of the Storks 2012 720p BluRay H264 AAC-RARBG"

Torrent search:

h264 hd 2012 bd