imdb
rating

 
Moana

Moana (2016)

Animation

Full description

Moana.2016.HD-TS.AAC.2CH.x264.[mvgee] [Isohunt.to] Verified

Size 631.655 MB   61 seeders     Added 2016-12-03 07:00:22

Stream torrent
Starting‥ You need BitLord! Get it from 1BitLord.com
6.7
To download or stream you need BitLord. Visit them at BitLord.com
A young woman uses her navigational talents to set sail for a fabled island. Joining her on the adventure is her hero, the legendary demi-god Maui. 

Year: 2016 
Genres: Animation,Adventure,Comedy 
Director: Ron Clements, Don Hall, John Musker, Chris Williams 
MPA Rating: PG 
Runtime: 103 min 
Rating: 8.3 

Metadata: 
encoder : Lavf57.2.102 
Chapter #0:0: start 0.059000, end 5624.566000 
Metadata: 
title : 00:00:00.059 
Stream #0:0: Video: h264 (libx264) ([33][0][0][0] / 0x0021), yuv420p, 720x328 [SAR 115:142 DAR 5175:2911], q=-1--1, 30 fps, 15360 tbn, 30 tbc (deflt) 
Metadata: 
encoder : Lavc57.4.100 libx264 
Stream #0:1: Audio: aac ([64][0][0][0] / 0x0040), 44100 Hz, stereo, fltp, 128 kb/s (default)
Moana.2016.HD-TS.AAC.2CH.x264.[mvgee].mp4 631.655 MB
Gathering some info...

Register and log in Isohunt and see no captcha anymore!

4000 symbols left
Hash 7ecfabc8e389d513afbb790cec9c1201eb9dc799

Related torrents for "Moana.2016.HD-TS.AAC.2CH.x264.[mvgee] [Isohunt.to]"

Torrent search:

telesync x264 hd 2016