imdb
rating

4.6
Born to Raise Hell

Born to Raise Hell (2010)

Action, Thriller

Full description
quality   fullhd dvdrip h264 bd hd dvdr

Born to Raise Hell (2010) 1080P MKV AC3+DTS NLSubs-DMT

Size 7.501 GB   0 seeders     Added 2010-10-22 17:21:48

10
To download or stream you need BitLord. Visit them at BitLord.com
Born to Raise Hell (2010) 1080P MKV AC3+DTS NLSubs-DMT

[IMG]image[/IMG]

PLOT

A hard core Interpol Agent is assigned to an Eastern 
European task force to target gun trafficking and dope 
running throughout the Balkans. While investigating a 
Russian gun dealer, his team is caught in a bloody street 
war between a Gypsy gang and the Russians, leaving one 
task force member dead. Fueled with vengeance, he leads 
us on an action packed thrill ride while avenging his 
friend\'s death. 

http://www.youtube.com/watch?v=UqGb-GFVoWs

MM:    http://www.moviemeter.nl/film/61471

IMDB:    http://www.imdb.com/title/tt1528718/

INFO

Source.....: 1080P BluRay 
FRAME RATE.: 23.976Fps 
VIDEO CODEC: X264
AUDIO 1....: DTS
AUDIO 2....: AC3
RESOLUTION.: 1920x1040
RUNTIME....: 97 MINS 
GENERE.....: Action 
LANGUAGE...: English
SUBTITLES..: Dutch

Thanks To Bradje

Enjoy

PLAYER INFO

General
Complete name                    : Born.to.Raise.Hell.2010.1080P.MKV.AC3.DTS.NLSubs-DMT.mkv
Format                           : Matroska
File size                        : 6.99 GiB
Duration                         : 1h 36mn
Overall bit rate                 : 10.4 Mbps
Movie name                       : Born to Raise Hell (2010) 1080P.X264.NL.SUBBED.Bradje
Encoded date                     : UTC 2010-10-22 06:18:51
Writing application              : mkvmerge v3.3.0 (\'Language\') built on Mar 24 2010 14:59:24
Writing library                  : libebml v0.8.0 + libmatroska v0.9.0

Video
ID                               : 1
Format                           : AVC
Format/Info                      : Advanced Video Codec
Format profile                   : High@L4.1
Format settings, CABAC           : Yes
Format settings, ReFrames        : 4 frames
Muxing mode                      : Container profile=Unknown@4.1
Codec ID                         : V_MPEG4/ISO/AVC
Duration                         : 1h 36mn
Bit rate                         : 8 256 Kbps
Width                            : 1 920 pixels
Height                           : 1 040 pixels
Display aspect ratio             : 16:9
Frame rate                       : 23.976 fps
Color space                      : YUV
Chroma subsampling               : 4:2:0
Bit depth                        : 8 bits
Scan type                        : Progressive
Bits/(Pixel*Frame)               : 0.172
Stream size                      : 5.40 GiB (77%)
Title                            : x264
Writing library                  : x264 core 107 r1745 4785e8e
Encoding settings                : cabac=1 / ref=4 / deblock=1:0:0 / analyse=0x3:0x133 / 
me=umh / subme=9 / psy=1 / psy_rd=1.00:0.00 / mixed_ref=1 / me_range=16 / chroma_me=1 / 
trellis=1 / 8x8dct=1 / cqm=0 / deadzone=21,11 / fast_pskip=0 / chroma_qp_offset=-2 / 
threads=12 / sliced_threads=0 / nr=0 / decimate=1 / interlaced=0 / constrained_intra=0 / 
bframes=3 / b_pyramid=2 / b_adapt=1 / b_bias=0 / direct=1 / weightb=1 / open_gop=0 / 
weightp=2 / keyint=250 / keyint_min=23 / scenecut=40 / intra_refresh=0 / rc_lookahead=40 / 
rc=2pass / mbtree=1 / bitrate=8256 / ratetol=1.0 / qcomp=0.60 / qpmin=10 / qpmax=51 / 
qpstep=4 / cplxblur=20.0 / qblur=0.5 / ip_ratio=1.40 / aq=1:1.00
Language                         : English

Audio #1
ID                               : 2
Format                           : DTS
Format/Info                      : Digital Theater Systems
Codec ID                         : A_DTS
Duration                         : 1h 36mn
Bit rate mode                    : Constant
Bit rate                         : 1 510 Kbps
Channel(s)                       : 6 channels
Channel positions                : Front: L C R, Side: L R, LFE
Sampling rate                    : 48.0 KHz
Bit depth                        : 24 bits
Stream size                      : 1.01 GiB (15%)
Title                            : DTS
Language                         : English

Audio #2
ID                               : 3
Format                           : AC-3
Format/Info                      : Audio Coding 3
Mode extension                   : CM (complete main)
Codec ID                         : A_AC3
Duration                         : 1h 36mn
Bit rate mode                    : Constant
Bit rate                         : 640 Kbps
Channel(s)                       : 6 channels
Channel positions                : Front: L C R, Side: L R, LFE
Sampling rate                    : 48.0 KHz
Bit depth                        : 16 bits
Stream size                      : 440 MiB (6%)
Title                            : AC3
Language                         : English

Text
ID                               : 4
Format                           : UTF-8
Codec ID                         : S_TEXT/UTF8
Codec ID/Info                    : UTF-8 Plain Text
Title                            : Subtitles
Language                         : Dutch

Menu
00:00:00.000                     : en:Video Start
00:05:00.000                     : en:Chapter 1 - 00 Hr 05 Min
00:10:00.000                     : en:Chapter 2 - 00 Hr 10 Min
00:15:00.000                     : en:Chapter 3 - 00 Hr 15 Min
00:20:00.000                     : en:Chapter 4 - 00 Hr 20 Min
00:25:00.000                     : en:Chapter 5 - 00 Hr 25 Min
00:30:00.000                     : en:Chapter 6 - 00 Hr 30 Min
00:35:00.000                     : en:Chapter 7 - 00 Hr 35 Min
00:40:00.000                     : en:Chapter 8 - 00 Hr 40 Min
00:45:00.000                     : en:Chapter 9 - 00 Hr 45 Min
00:50:00.000                     : en:Chapter 10 - 00 Hr 50 Min
00:55:00.000                     : en:Chapter 11 - 00 Hr 55 Min
01:00:00.000                     : en:Chapter 12 - 01 Hr 00 Min
01:05:00.000                     : en:Chapter 13 - 01 Hr 05 Min
01:10:00.000                     : en:Chapter 14 - 01 Hr 10 Min
01:15:00.000                     : en:Chapter 15 - 01 Hr 15 Min
01:20:00.000                     : en:Chapter 16 - 01 Hr 20 Min
01:25:00.000                     : en:Chapter 17 - 01 Hr 25 Min
01:30:00.000                     : en:Chapter 18 - 01 Hr 30 Min
01:35:00.000                     : en:Chapter 19 - 01 Hr 35 Min

Born.to.Raise.Hell.2010.1080P.MKV.AC3.DTS.NLSubs-DMT/Born.to.Raise.Hell.2010.1080P.MKV.AC3.DTS.NLSubs-DMT.mkv 7.501 GB
dmtnl.png 102.773 KB
Born.to.Raise.Hell.2010.1080P.MKV.AC3.DTS.NLSubs-DMT.nfo 6.512 KB
Gathering some info...

Register and log in Isohunt and see no captcha anymore!

4000 symbols left
Hash 6F0C8D2C92A9E26CD4151C5EB3891D78DCA21175

Related torrents for "Born to Raise Hell (2010) 1080P MKV AC3+DTS NLSubs-DMT"

Torrent search:

2010 fullhd