Band of Brothers

Band of Brothers (2001)

Action, Drama, Military/War

Full description

Band Of Brothers - (Complete)

Size 9.006 GB   0 seeders     Added 2010-10-23 11:50:42

Stream torrent
Starting‥ You need BitLord! Get it from
To download or stream you need BitLord. Visit them at
===============================================================================================\r\n     MOVIE TITLE: Band Of Brothers - (Complete)\r\n     LANGUAGE: English\r\n     MOVIE SUBS: No - (subtitles if/when required)\r\n===============================================================================================\r\n     MOVIE DESC:\r\n\r\n     This is the story of \"E\" Easy Company, 506th Regiment of the 101st Airborne Division from their initial training starting in 1942 \r\n     to the end of World War II. They parachuted behind enemy lines in the early hours of D-Day in support of the landings at \r\n     Utah beach, participated in the liberation of Carentan and again parachuted into action during Operation Market Garden. \r\n\r\n     They also liberated a concentration camp and were the first to enter Hitler's mountain retreat in Berchtesgarten. A fascinating\r\n     tale of comradeship that is, in the end, a tale of ordinary men who did extraordinary things.\r\n===============================================================================================\r\n     MOVIE SPECS:\r\n\r\n     GENERAL:\r\n     Complete name                    : Band Of Brothers - (Complete)\r\n     File size                        : 8.38 GB\r\n     Duration                         : 705 Minutes\r\n     Overall bit rate                 : 2 709 Kbps\r\n\r\n     VIDEO:\r\n     ID                               : 224 (0xE0)\r\n     Format                           : MPEG Video\r\n     Format version                   : Version 2\r\n     Format profile                   : Main@Main\r\n     Format settings, BVOP            : Yes\r\n     Format settings, Matrix          : Default\r\n     Duration                         : 705 Minutes\r\n     Bit rate mode                    : Variable\r\n     Bit rate                         : 2 464 Kbps\r\n     Nominal bit rate                 : 9 608 Kbps\r\n     Width                            : 720 pixels\r\n     Height                           : 576 pixels\r\n     Display aspect ratio             : 16:9\r\n     Frame rate                       : 25.000 fps\r\n     Standard                         : PAL\r\n     Color space                      : YUV\r\n     Chroma subsampling               : 4:2:0\r\n     Bit depth                        : 8 bits\r\n     Scan type                        : Progressive\r\n     Bits/(Pixel*Frame)               : 0.238\r\n     Stream size                      : 931 MiB (91%)\r\n\r\n     AUDIO:\r\n     ID                               : 128 (0x80)\r\n     Format                           : AC-3\r\n     Format/Info                      : Audio Coding 3\r\n     Mode extension                   : CM (complete main)\r\n     Duration                         : 705 Minutes\r\n     Bit rate mode                    : Constant\r\n     Bit rate                         : 192 Kbps\r\n     Channel(s)                       : 2 channels\r\n     Channel positions                : Front: L R\r\n     Sampling rate                    : 48.0 KHz\r\n     Stream size                      : 72.6 MiB (7%)\r\n===============================================================================================
Band Of Brothers - (Complete)/Band Of Brothers - (Complete) Disc 1/VIDEO_TS/VIDEO_TS.BUP 16.384 KB
Band Of Brothers - (Complete)/Band Of Brothers - (Complete) Disc 1/VIDEO_TS/VIDEO_TS.IFO 16.384 KB
Band Of Brothers - (Complete)/Band Of Brothers - (Complete) Disc 1/VIDEO_TS/VIDEO_TS.VOB 3.297 MB
Gathering some info...

Register and log in Isohunt and see no captcha anymore!

4000 symbols left
Hash 182C9E2047D93835C323CC57B39F74EE7B5493D6

Related torrents for "Band Of Brothers - (Complete)"