imdb
rating

5.8
Mary Reilly

Mary Reilly (1996)

Drama, Horror, Romance, Thriller

Full description
quality   dvdrip dvdr hd x264 hdtv

Mary Reilly 1996 DVD9rip English Klam

Size 1.661 GB   1 seeders     Added 2010-10-23 12:16:45

Stream torrent
Starting‥ You need BitLord! Get it from BitLord.com
10
To download or stream you need BitLord. Visit them at BitLord.com
[IMG]image[/IMG]\r\n\r\nWith: Julia Roberts, John Malkovich en Michael Gambon\r\n\r\nWe are somewhere in England in the 19th century. A Pretty housemaid works in a nice house, which is Dr. Jekyll's house. Mary Reilly think she found her best job, because she is poor and the doctor is well-known and rich. The film tells the 'Dr. Jekyll and Mr. Hyde' story as a woman sees the two men, one of them is good and the other is evil. And she loves them ...\r\n\r\nhttp://www.imdb.com/title/tt0117002	\r\n\r\nGeneral:\r\n\r\nComplete name                    : Klambake\\Mary\\Reilly.avi\r\nFormat                           : AVI\r\nFormat/Info                      : Audio Video Interleave\r\nFile size                        : 1.55 GiB\r\nDuration                         : 1h 44mn\r\nOverall bit rate                 : 2 128 Kbps\r\n\r\nVideo:\r\n\r\nFormat                           : MPEG-4 Visual\r\nFormat profile                   : Simple@L3\r\nFormat settings, BVOP            : No\r\nFormat settings, QPel            : No\r\nFormat settings, GMC             : No warppoints\r\nFormat settings, Matrix          : Default (H.263)\r\nCodec ID                         : XVID\r\nCodec ID/Hint                    : XviD\r\nDuration                         : 1h 44mn\r\nBit rate                         : 1 669 Kbps\r\nWidth                            : 720 pixels\r\nHeight                           : 576 pixels\r\nDisplay aspect ratio             : 5:4\r\nFrame rate                       : 25.000 fps\r\nStandard                         : PAL\r\nColor space                      : YUV\r\nChroma subsampling               : 4:2:0\r\nBit depth                        : 8 bits\r\nScan type                        : Progressive\r\nBits/(Pixel*Frame)               : 0.161\r\nStream size                      : 1.21 GiB (78%)\r\nWriting library                  : XviD 1.1.2 (UTC 2006-11-01)\r\n\r\nAudio:\r\n\r\nFormat                           : AC-3\r\nFormat/Info                      : Audio Coding 3\r\nMode extension                   : CM (complete main)\r\nCodec ID                         : 2000\r\nDuration                         : 1h 44mn\r\nBit rate mode                    : Constant\r\nBit rate                         : 448 Kbps\r\nChannel(s)                       : 6 channels\r\nChannel positions                : Front: L C R, Side: L R, LFE\r\nSampling rate                    : 48.0 KHz\r\nBit depth                        : 16 bits\r\nStream size                      : 333 MiB (21%)\r\nAlignment                        : Aligned on interleaves\r\nInterleave, duration             : 32 ms (0.80 video frame)\r\nInterleave, preload duration     : 640 ms
Cover/00 Film-Terminal-Flyer org.JPG 272.216 KB
Cover/flyer2Lions.jpg 375.297 KB
Cover/Mary Reilly.jpg 184.769 KB
Gathering some info...

Register and log in Isohunt and see no captcha anymore!

4000 symbols left
Hash F7E78097C61C0A632BE86B34330BB79E97AD2AED

Related torrents for "Mary Reilly 1996 DVD9rip English Klam"

Torrent search:

english 1996