The Double - The Chelsea season review 2009-10

Size 1.672 GB   4 seeders     Added 2010-10-23 12:45:22

Stream torrent
Starting‥ You need BitLord! Get it from BitLord.com
10
To download or stream you need BitLord. Visit them at BitLord.com
Format                           : MPEG-4\r\nFormat profile                   : Base Media / Version 2\r\nCodec ID                         : mp42\r\nFile size                        : 1.56 GiB\r\nDuration                         : 2h 16mn\r\nOverall bit rate                 : 1 635 Kbps\r\nEncoded date                     : UTC 2010-06-11 04:50:32\r\nTagged date                      : UTC 2010-06-11 08:06:37\r\n\r\nVideo\r\nID                               : 1\r\nFormat                           : MPEG-4 Visual\r\nFormat profile                   : Advanced Simple@L5\r\nFormat settings, BVOP            : Yes\r\nFormat settings, QPel            : No\r\nFormat settings, GMC             : No warppoints\r\nFormat settings, Matrix          : Default (H.263)\r\nCodec ID                         : 20\r\nDuration                         : 2h 16mn\r\nBit rate mode                    : Variable\r\nBit rate                         : 1 548 Kbps\r\nMaximum bit rate                 : 4 487 Kbps\r\nWidth                            : 720 pixels\r\nHeight                           : 400 pixels\r\nDisplay aspect ratio             : 16:9\r\nFrame rate mode                  : Constant\r\nFrame rate                       : 25.000 fps\r\nColor space                      : YUV\r\nChroma subsampling               : 4:2:0\r\nBit depth                        : 8 bits\r\nScan type                        : Progressive\r\nBits/(Pixel*Frame)               : 0.215\r\nStream size                      : 1.47 GiB (95%)\r\nWriting library                  : em4v 4.1.6.5\r\nLanguage                         : English\r\nEncoded date                     : UTC 2010-06-11 04:50:32\r\nTagged date                      : UTC 2010-06-11 08:06:37\r\n\r\nAudio\r\nID                               : 2\r\nFormat                           : AAC\r\nFormat/Info                      : Advanced Audio Codec\r\nFormat version                   : Version 4\r\nFormat profile                   : LC\r\nFormat settings, SBR             : No\r\nCodec ID                         : 40\r\nDuration                         : 2h 16mn\r\nBit rate mode                    : Variable\r\nBit rate                         : 80.6 Kbps\r\nMaximum bit rate                 : 106 Kbps\r\nChannel(s)                       : 2 channels\r\nChannel positions                : Front: L R\r\nSampling rate                    : 44.1 KHz\r\nStream size                      : 78.5 MiB (5%)\r\nLanguage                         : English\r\nEncoded date                     : UTC 2010-06-11 04:50:32\r\nTagged date                      : UTC 2010-06-11 08:06:37\r\n\r\n-H67-
The Double - The Chelsea season review 2009-10.mp4 1.671 GB
H67 LOGO.jpg 639.41 KB
Screens.jpg 75.262 KB
Gathering some info...

Register and log in Isohunt and see no captcha anymore!

4000 symbols left
Hash C8D23A4435DE0D9CCF58E759D659CB5C04ED9098

Related torrents for "The Double - The Chelsea season review 2009-10"

Torrent search:

2009