Footloose (1984)

Drama, Music, Romance, Family

Full description
quality   dvdrip x264 bd hd

Footloose 1984 DVD9rip English Klam

Size 1.685 GB   10 seeders     Added 2010-10-23 13:54:40

Stream torrent
Starting‥ You need BitLord! Get it from
To download or stream you need BitLord. Visit them at
[IMG]image[/IMG]\r\n\r\nWith: Kevin Bacon, Lori Singer en John Lithgow\r\n\r\nClassic tale of teen rebellion and repression features a delightful combination of dance choreography and realistic and touching performances. When teenager Ren and his family move from big-city Chicago to a small town in the West, he's in for a real case of culture shock. Though he tries hard to fit in, the streetwise Ren can't quite believe he's living in a place where rock music and dancing are illegal. There is one small pleasure, however: Ariel, a troubled but lovely blonde with a jealous boyfriend. and a Bible-thumping minister, who is responsible for keeping the town dance-free. Ren and his classmates want to do away with this ordinance, especially since the senior prom is around the corner, but only Ren has the courage to initiate a battle to abolish the outmoded ban and revitalize the spirit of the repressed townspeople. Fast-paced drama is filled with such now-famous hit songs as the title track and \"Let's Hear It for the Boy.\"\r\n\r\n	\r\n\r\nGeneral:\r\n\r\nComplete name                    : Klambake\\Footloose\\FootLoose.avi\r\nFormat                           : AVI\r\nFormat/Info                      : Audio Video Interleave\r\nFile size                        : 1.57 GiB\r\nDuration                         : 1h 42mn\r\nOverall bit rate                 : 2 185 Kbps\r\n\r\nVideo:\r\n\r\nFormat                           : MPEG-4 Visual\r\nFormat profile                   : Simple@L3\r\nFormat settings, BVOP            : No\r\nFormat settings, QPel            : No\r\nFormat settings, GMC             : No warppoints\r\nFormat settings, Matrix          : Default (H.263)\r\nCodec ID                         : XVID\r\nCodec ID/Hint                    : XviD\r\nDuration                         : 1h 42mn\r\nBit rate                         : 2 012 Kbps\r\nWidth                            : 720 pixels\r\nHeight                           : 576 pixels\r\nDisplay aspect ratio             : 5:4\r\nFrame rate                       : 25.000 fps\r\nStandard                         : PAL\r\nColor space                      : YUV\r\nChroma subsampling               : 4:2:0\r\nBit depth                        : 8 bits\r\nScan type                        : Progressive\r\nBits/(Pixel*Frame)               : 0.194\r\nStream size                      : 1.44 GiB (92%)\r\nWriting library                  : XviD 1.1.2 (UTC 2006-11-01)\r\n\r\nAudio:\r\n\r\nFormat                           : MPEG Audio\r\nFormat version                   : Version 1\r\nFormat profile                   : Layer 3\r\nMode                             : Joint stereo\r\nMode extension                   : MS Stereo\r\nCodec ID                         : 55\r\nCodec ID/Hint                    : MP3\r\nDuration                         : 1h 42mn\r\nBit rate mode                    : Constant\r\nBit rate                         : 160 Kbps\r\nChannel(s)                       : 2 channels\r\nSampling rate                    : 48.0 KHz\r\nStream size                      : 118 MiB (7%)\r\nAlignment                        : Split accross interleaves\r\nInterleave, duration             : 24 ms (0.60 video frame)\r\nInterleave, preload duration     : 68 ms\r\nWriting library                  : LAME3.98
Cover/00 Film-Terminal-Flyer org.JPG 272.216 KB
Cover/flyer2Lions.jpg 375.297 KB
Cover/Footloose DVD.jpg 85.69 KB
Gathering some info...

Register and log in Isohunt and see no captcha anymore!

4000 symbols left
Hash 76893A2B7FCDD2E6A8935CBAFF7821D30DE8EB13

Related torrents for "Footloose 1984 DVD9rip English Klam"

Torrent search:

english 1984