imdb
rating

7.2
Grease

Grease (1978)

Romance

Full description
quality   dvdrip fullhd hd x264 bd

Grease 1978 DVD9rip English Klam

Size 1.894 GB   22 seeders     Added 2010-10-23 14:08:53

Stream torrent
Starting‥ You need BitLord! Get it from BitLord.com
9.6
To download or stream you need BitLord. Visit them at BitLord.com
[IMG]image[/IMG]\r\n\r\nWith: John Travolta, Olivia Newton-John en Stockard Channing\r\n\r\nA musical about teens in love in the 50's! It's California, 1959 and greaser Danny Zuko and Australian Sandy Olsson are in love. They spend time at the beach, but when they go back to school, what either of them don't know is that they both now attend Rydell High. Danny's the leader of the T-Birds, a group of black-jacket greasers while Sandy hangs with the Pink Ladies, a group of pink-wearing girls led by Rizzo. When they clash at Rydell's first pep rally, Danny isn't the same Danny at the beach. They try to be like each other so they can be together.\r\n\r\nhttp://www.imdb.com/title/tt0077631	\r\n\r\nGeneral:\r\n\r\nComplete name                    : Klambake\\Grease\\Grease.avi\r\nFormat                           : AVI\r\nFormat/Info                      : Audio Video Interleave\r\nFile size                        : 1.76 GiB\r\nDuration                         : 1h 45mn\r\nOverall bit rate                 : 2 382 Kbps\r\n\r\nVideo:\r\n\r\nFormat                           : MPEG-4 Visual\r\nFormat profile                   : Simple@L3\r\nFormat settings, BVOP            : No\r\nFormat settings, QPel            : No\r\nFormat settings, GMC             : No warppoints\r\nFormat settings, Matrix          : Default (H.263)\r\nCodec ID                         : XVID\r\nCodec ID/Hint                    : XviD\r\nDuration                         : 1h 45mn\r\nBit rate                         : 1 923 Kbps\r\nWidth                            : 720 pixels\r\nHeight                           : 400 pixels\r\nDisplay aspect ratio             : 16:9\r\nFrame rate                       : 25.000 fps\r\nColor space                      : YUV\r\nChroma subsampling               : 4:2:0\r\nBit depth                        : 8 bits\r\nScan type                        : Progressive\r\nBits/(Pixel*Frame)               : 0.267\r\nStream size                      : 1.42 GiB (81%)\r\nWriting library                  : XviD 1.1.2 (UTC 2006-11-01)\r\n\r\nAudio:\r\n\r\nFormat                           : AC-3\r\nFormat/Info                      : Audio Coding 3\r\nMode extension                   : CM (complete main)\r\nCodec ID                         : 2000\r\nDuration                         : 1h 45mn\r\nBit rate mode                    : Constant\r\nBit rate                         : 448 Kbps\r\nChannel(s)                       : 6 channels\r\nChannel positions                : Front: L C R, Side: L R, LFE\r\nSampling rate                    : 48.0 KHz\r\nStream size                      : 339 MiB (19%)\r\nAlignment                        : Aligned on interleaves\r\nInterleave, duration             : 32 ms (0.80 video frame)\r\nInterleave, preload duration     : 384 ms
Cover/00 Film-Terminal-Flyer org.JPG 272.216 KB
Cover/flyer2Lions.jpg 375.297 KB
Cover/Grease DVD.jpg 342.079 KB
Gathering some info...

Register and log in Isohunt and see no captcha anymore!

4000 symbols left
Hash C5E168F1E6DE186ED5B83BFBBD047EAEFEA8BACB

Related torrents for "Grease 1978 DVD9rip English Klam"

Torrent search:

english 1978