imdb
rating

6.5
Alice in Wonderland

Alice in Wonderland (2010)

Adventure, Fantasy, Family

Full description

Alice In Wonderland 3D 3DBD 2010 DL 1080p X264-AQUA

Size 8.993 GB   0 seeders     Added 2010-10-23 16:31:55

Stream torrent
Starting‥ You need BitLord! Get it from 1BitLord.com
7.5
To download or stream you need BitLord. Visit them at BitLord.com
Inhakt:\r\nKultregisseur Tim Burton erweckt in Alice im Wunderland eine mrchenhafte Welt voll schrger Wunderlichkeiten, bizarrer Geschpfe und skurriler Figuren zum Leben.\r\nSuperstar Johnny Depp und weitere Topstars wie Anne Hathaway und Helena Bonham Carter entfhren den Zuschauer in ein bildgewaltiges Fantasy-Abenteuer fr die ganze Familie in perfekter Bild- und Tonqualitt auf High-Definition Blu-ray DiscTM.\r\nNach vielen Jahren kehrt die inzwischen 19-jhrige Alice (Mia Wasikowska) zurck ins Wunderland, einen faszinierenden Ort jenseits aller Vorstellungskraft.\r\nDort trifft sie auf viele auergewhnliche Charaktere wie den verrckten Hutmacher (Johnny Depp), die weie und rote Knigin (Anne Hathaway und Helena Bonham Carter), sowie das weie Kaninchen.\r\nAuf ihrer unglaublichen Reise durch diese zauberhafte Welt findet Alice heraus, wer sie wirklich ist. Alice im Wunderland besticht mit visuellen Effekten, Witz und jeder Menge Charme.\r\nSo haben Sie die Geschichte von Alice noch nie gesehen.\r\n\r\nSprache: englisch & deutsch\r\nLaufzeit: 108 min\r\nFormat: mkv\r\nAudio: eng & ger dts\r\nGre: side-by-side: 8,3GB\r\nAuflsung: 1920 x 1080\r\nGenre: 3D, Abenteuer, Fantasy\r\n\r\n\r\nGeneral\r\nComplete name : I:AliceAlice.In.Wonderland.3D.3DBD.2010.DL.1080p .half.SBS.X264.AQUA.mkv\r\nFormat : Matroska\r\nFile size : 8.30 GiB\r\nDuration : 1h 48mn\r\nOverall bit rate : 10.9 Mbps\r\nEncoded date : UTC 2010-10-05 04:50:06\r\nWriting application : mkvmerge v4.0.0 (The Stars were mine) gebaut am Jun 6 2010 16:18:42\r\nWriting library : libebml v1.0.0 + libmatroska v1.0.0\r\n\r\nVideo\r\nID : 1\r\nFormat : AVC\r\nFormat/Info : Advanced Video Codec\r\nFormat profile : High@L4.1\r\nFormat settings, CABAC : Yes\r\nFormat settings, ReFrames : 4 frames\r\nMuxing mode : Container profile=Unknown@4.1\r\nCodec ID : V_MPEG4/ISO/AVC\r\nDuration : 1h 48mn\r\nBit rate : 7 710 Kbps\r\nWidth : 1 920 pixels\r\nHeight : 1 080 pixels\r\nDisplay aspect ratio : 16:9\r\nFrame rate : 23.976 fps\r\nResolution : 24 bits\r\nColorimetry : 4:2:0\r\nScan type : Progressive\r\nBits/(Pixel*Frame) : 0.155\r\nStream size : 5.84 GiB (70)\r\nTitle : Made by AQUA\r\n\r\nAudio #1\r\nID : 2\r\nFormat : DTS\r\nFormat/Info : Digital Theater Systems\r\nFormat profile : ES\r\nCodec ID : A_DTS\r\nDuration : 1h 48mn\r\nBit rate mode : Constant\r\nBit rate : 1 510 Kbps\r\nChannel(s) : 6 channels\r\nChannel positions : Front: L C R, Surround: L R, LFE\r\nSampling rate : 48.0 KHz\r\nResolution : 24 bits\r\nStream size : 1.15 GiB (14)\r\nLanguage : German\r\n\r\nAudio #2\r\nID : 3\r\nFormat : DTS\r\nFormat/Info : Digital Theater Systems\r\nFormat profile : ES\r\nCodec ID : A_DTS\r\nDuration : 1h 48mn\r\nBit rate mode : Constant\r\nBit rate : 1 510 Kbps\r\nChannel(s) : 6 channels\r\nChannel positions : Front: L C R, Surround: L R, LFE\r\nSampling rate : 48.0 KHz\r\nResolution : 24 bits\r\nStream size : 1.15 GiB (14)\r\nLanguage : Englisch
Alice.In.Wonderland.3D.3DBD.2010.DL.1080p.X264.AQUA.NFO 2.805 KB
Alice.In.Wonderland.3D.3DBD.2010.DL.1080p.X264.AQUA.SAMPLE.mkv 82.68 MB
Alice.In.Wonderland.3D.3DBD.2010.DL.1080p.X264.AQUA.jpg 415.92 KB
Gathering some info...

Register and log in Isohunt and see no captcha anymore!

4000 symbols left
Hash 1D250564C7163D94A6319353DAD5FFCB2554DB3A

Related torrents for "Alice In Wonderland 3D 3DBD 2010 DL 1080p X264-AQUA"

Torrent search:

x264 2010 fullhd