imdb
rating

7.6
The Commitments

The Commitments (1991)

Drama, Music

Full description
quality   dvdrip x264 dvdr hd

The Commitments 1991 DVD9rip English Klam

Size 1.79 GB   6 seeders     Added 2010-10-23 20:08:29

Stream torrent
Starting‥ You need BitLord! Get it from 1BitLord.com
10
To download or stream you need BitLord. Visit them at BitLord.com
[IMG]image[/IMG]\r\n\r\nWith: Robert Arkins, Andrew Strong en Johnny Murphy\r\n\r\nJimmy Rabbitte, che vive di piccoli espedienti in un quartiere proletario di Dublino, si e' messo in testa di organizzare una band musicale per rinverdire i fasti del rythm&blues e del soul. Grazie ad un annuncio sul giornale, Rabbitte comincia a selezionare giovani dal lavoro precario ma pieni di talento: Dean, Fay, Outspan, l'occhialuto Steven , Clifford, Deco, il ciccione senza buone maniere ma con una grande voce, Billy il batterista e Joey \"The lips\", un bizzarro e maturo anziano suonatore di tromba che si vanta di aver suonato con famosi soul-singers. Aggrega anche Natalie, Imelda e Bernie, tre grintose ragazze, ottime coriste e molto sexy. Procuratisi a credito la strumentazione, cominciano le prove, massacranti, che impegnano tutti. Si inizia a suonare in pubblico, in capannoni e feste sociali: il gruppo sembra pervaso dal fuoco della musica e dell'ambizione. La band, pur se dilettantesca e provinciale... \r\n\r\nhttp://www.imdb.com/title/tt0101605\r\n\r\nGeneral:\r\n\r\nComplete name                    : Klambake\\The Commitments\\The Commitments.avi\r\nFormat                           : AVI\r\nFormat/Info                      : Audio Video Interleave\r\nFile size                        : 1.67 GiB\r\nDuration                         : 1h 52mn\r\nOverall bit rate                 : 2 117 Kbps\r\n\r\nVideo:\r\n\r\nFormat                           : MPEG-4 Visual\r\nFormat profile                   : Simple@L3\r\nFormat settings, BVOP            : No\r\nFormat settings, QPel            : No\r\nFormat settings, GMC             : No warppoints\r\nFormat settings, Matrix          : Default (H.263)\r\nCodec ID                         : XVID\r\nCodec ID/Hint                    : XviD\r\nDuration                         : 1h 52mn\r\nBit rate                         : 1 658 Kbps\r\nWidth                            : 720 pixels\r\nHeight                           : 576 pixels\r\nDisplay aspect ratio             : 5:4\r\nFrame rate                       : 25.000 fps\r\nStandard                         : PAL\r\nColor space                      : YUV\r\nChroma subsampling               : 4:2:0\r\nBit depth                        : 8 bits\r\nScan type                        : Progressive\r\nBits/(Pixel*Frame)               : 0.160\r\nStream size                      : 1.30 GiB (78%)\r\nWriting library                  : XviD 1.1.2 (UTC 2006-11-01)\r\n\r\nAudio:\r\n\r\nFormat                           : AC-3\r\nFormat/Info                      : Audio Coding 3\r\nMode extension                   : CM (complete main)\r\nCodec ID                         : 2000\r\nDuration                         : 1h 52mn\r\nBit rate mode                    : Constant\r\nBit rate                         : 448 Kbps\r\nChannel(s)                       : 6 channels\r\nChannel positions                : Front: L C R, Side: L R, LFE\r\nSampling rate                    : 48.0 KHz\r\nBit depth                        : 16 bits\r\nStream size                      : 361 MiB (21%)\r\nAlignment                        : Aligned on interleaves\r\nInterleave, duration             : 32 ms (0.80 video frame)\r\nInterleave, preload duration     : 64 ms
Cover/00 Film-Terminal-Flyer org.JPG 272.216 KB
Cover/flyer2Lions.jpg 375.297 KB
Cover/The Commitments DVD.jpg 106.702 KB
Gathering some info...

Register and log in Isohunt and see no captcha anymore!

4000 symbols left
Hash 5EE44F0DE95D7958F49F03CAB5CC2315EBE4DA43

Related torrents for "The Commitments 1991 DVD9rip English Klam"

Torrent search:

english 1991