imdb
rating

7.6
Hair

Hair (1979)

Comedy, Drama, History, Music

Full description
quality   x264 hd bd fullhd dvdrip hdtv

Hair 1979 DVD9rip English Klam

Size 2 GB   2 seeders     Added 2010-10-23 20:32:12

Stream torrent
Starting‥ You need BitLord! Get it from 1BitLord.com
8.8
To download or stream you need BitLord. Visit them at BitLord.com
[IMG]image[/IMG]

With: John Savage, Treat Williams en Beverly D'Angelo

This movie, based on the cult Broadway musical of the 60s, tells a story about Claude, a young man from Oklahoma who comes to New York City. There he strikes up a friendship with a group of hippies, led by Berger, and falls in love with Sheila, a girl from a rich family. However, their happiness is short because Claude must go to the Vietnam war. 

http://www.imdb.com/title/tt0079261	

General:

Complete name                    : Klambake\Hair\Hair.avi
Format                           : AVI
Format/Info                      : Audio Video Interleave
File size                        : 1.86 GiB
Duration                         : 1h 55mn
Overall bit rate                 : 2 299 Kbps

Video:

Format                           : MPEG-4 Visual
Format profile                   : Simple@L3
Format settings, BVOP            : No
Format settings, QPel            : No
Format settings, GMC             : No warppoints
Format settings, Matrix          : Default (H.263)
Codec ID                         : XVID
Codec ID/Hint                    : XviD
Duration                         : 1h 55mn
Bit rate                         : 1 841 Kbps
Width                            : 720 pixels
Height                           : 576 pixels
Display aspect ratio             : 5:4
Frame rate                       : 25.000 fps
Standard                         : PAL
Color space                      : YUV
Chroma subsampling               : 4:2:0
Bit depth                        : 8 bits
Scan type                        : Progressive
Bits/(Pixel*Frame)               : 0.178
Stream size                      : 1.49 GiB (80%)
Writing library                  : XviD 1.1.2 (UTC 2006-11-01)

Audio:

Format                           : AC-3
Format/Info                      : Audio Coding 3
Mode extension                   : CM (complete main)
Codec ID                         : 2000
Duration                         : 1h 55mn
Bit rate mode                    : Constant
Bit rate                         : 448 Kbps
Channel(s)                       : 6 channels
Channel positions                : Front: L C R, Side: L R, LFE
Sampling rate                    : 48.0 KHz
Bit depth                        : 16 bits
Stream size                      : 371 MiB (19%)
Alignment                        : Aligned on interleaves
Interleave, duration             : 32 ms (0.80 video frame)
Interleave, preload duration     : 416 ms
Covers/00 Film-Terminal-Flyer org.JPG 272.216 KB
Covers/01 flyer2Lions.jpg 375.297 KB
Covers/Hair DVD.jpg 334.551 KB
Gathering some info...

Register and log in Isohunt and see no captcha anymore!

4000 symbols left
Hash 1BFB30A66D873A4EF32ACA4FA2B584EFD1F62650

Related torrents for "Hair 1979 DVD9rip English Klam"

Torrent search:

english 1979