imdb
rating

5.5
We Are Family

We Are Family (2010)

Drama, Romance, Family, Foreign

Full description
quality   dvdrip x264 screener hd web-rip

We Are Family 2010 - DVDRip - XviD - 1CDRip - Team SRG

Size 733.055 MB   0 seeders     Added 2010-10-23 21:03:26

Stream torrent
Starting‥ You need BitLord! Get it from BitLord.com
10
To download or stream you need BitLord. Visit them at BitLord.com
General\r\nComplete name : We Are Family - DVDRip - XviD - 1CDRip\r\nFormat : AVI\r\nFormat/Info : Audio Video Interleave\r\nFile size : 699 MiB\r\nDuration : 2h 29mn\r\nOverall bit rate : 655 Kbps\r\nWriting application : MEncoder dev-SVN-r23673-4.2.0\r\nWriting library : MPlayer\r\n\r\nVideo\r\nID : 0\r\nFormat : MPEG-4 Visual\r\nFormat profile : Simple@L1\r\nFormat settings, BVOP : No\r\nFormat settings, QPel : No\r\nFormat settings, GMC : No warppoints\r\nFormat settings, Matrix : Default (H.263)\r\nCodec ID : DIVX\r\nCodec ID/Info : Project Mayo\r\nCodec ID/Hint : DivX 4\r\nDuration : 2h 29mn\r\nBit rate : 540 Kbps\r\nWidth : 720 pixels\r\nHeight : 576 pixels\r\nDisplay aspect ratio : 5:4\r\nFrame rate : 25.000 fps\r\nStandard : PAL\r\nColor space : YUV\r\nChroma subsampling : 4:2:0\r\nBit depth : 8 bits\r\nScan type : Progressive\r\nBits/(Pixel*Frame) : 0.052\r\nStream size : 577 MiB (82%)\r\nWriting library : Lavc51.40.4\r\n\r\nAudio\r\nID : 1\r\nFormat : MPEG Audio\r\nFormat version : Version 1\r\nFormat profile : Layer 3\r\nMode : Joint stereo\r\nCodec ID : 55\r\nCodec ID/Hint : MP3\r\nDuration : 2h 29mn\r\nBit rate mode : Constant\r\nBit rate : 80.0 Kbps\r\nChannel(s) : 2 channels\r\nSampling rate : 48.0 KHz\r\nStream size : 85.4 MiB (12%)\r\nAlignment : Aligned on interleaves\r\n\r\n[img]image[/img]\r\n[img]image[/img]\r\n[img]image[/img]\r\n[img]image[/img]
We Are Family(2010) - DVDRip - XviD - 1CDRip - Team SRG.avi 733.055 MB
Gathering some info...

Register and log in Isohunt and see no captcha anymore!

4000 symbols left
Hash 927AE937AC810168AA3C0655EF19CAD51236794C

Related torrents for "We Are Family 2010 - DVDRip - XviD - 1CDRip - Team SRG"

Torrent search:

dvdrip 2010