imdb
rating

5.7
The Abandoned

The Abandoned (2006)

Horror, Thriller

Full description
quality   dvdrip bd x264 cam hdtv screener

Abandoned_DVDrip_xvid_ac3_tarheel4.avi

Size 1.452 GB   0 seeders     Added 2010-10-25 01:59:08

Stream torrent
Starting‥ You need BitLord! Get it from BitLord.com
To download or stream you need BitLord. Visit them at BitLord.com
Format : AVI

Format/Info : Audio Video Interleave

File size : 1.35 GiB

Duration : 1h 28mn

Overall bit rate : 2 199 Kbps

Movie name : ABANDONED

Writing application : Lavf52.33.0

Original source form/Name : ABANDONED

Video

Format : xvid

Codec ID : xvid

Duration : 1h 27mn

Bit rate : 1 742 Kbps

Width : 720 pixels

Height : 404 pixels

Display aspect ratio : 16:9

Frame rate : 29.970 fps

Resolution : 24 bits

Bits/(Pixel*Frame) : 0.200

Stream size : 1.07 GiB (79%)

Audio #1

ID : 1

Format : AC-3

Format/Info : Audio Coding 3

Codec ID : 2000

Duration : 1h 28mn

Bit rate mode : Constant

Bit rate : 448 Kbps

Channel(s) : 6 channels

Channel positions : Front: L C R, Surround: L R, LFE

Sampling rate : 48.0 KHz

Stream size : 282 MiB (20%)

Alignment : Aligned on interleaves

Interleave, duration : 32 ms (0.96...
ABANDONED_DVDrip_xvid_AC3_Tarheel64.avi 1.452 GB
Gathering some info...

Register and log in Isohunt and see no captcha anymore!

4000 symbols left
Hash 645F660FD82BF9454DA328F7864CB42A7ACE8683

Related torrents for "Abandoned_DVDrip_xvid_ac3_tarheel4.avi"