Miles Davis Miles Electric A Different Kind of Blue(avi)(music d

Size 1.049 GB   1 seeders     Added 2010-10-26 03:34:54

Stream torrent
Starting‥ You need BitLord! Get it from
To download or stream you need BitLord. Visit them at
 Studio: Eagle Rock Ent 
 DVD Release Date: November 16, 2004 
Run Time: 87 minutes
Miles 'Dewey' Davis III, shot slightly prior to his ascent into dark magus period, here found in all his electric period glory. As something of a miles obsessive there's much to recommend here in a 2 hours plus wet dream for die hard fans. Peppered with incendiary footage, 'Bitches Brew', miles in bad strides, wicked and loud silk shirts, orange sunglasses, growling and glowering, trumpet through wah wah pedals and such other malarkey, theres also plenty nuff fascinating interviews with sidemen such as Herbie hancock, Keith Jarrett, Dave Liebman, Chick Corea and tributes from Carlos Santana, Joni Mitchell et al. This period reflected Miles growing interest in the works of Stockhausen, Hendrix and Sly stone, a mighty triumvirate and for our money his most inspirational and underrated material in the whole Davis canon. Culminating in the full 38 minute one track performance of 'Call It Anything' at the 1970 Isle of Wight, its still indisputably the coolest shit, the sound of improvisation mutating through fusion, rock, drugs, composition and cosmic inspiration.
Following the release of his controversial "Bitches Brew" album, Miles Davis appeared at the Isle of Wight Festival on August 29, 1970. Footage from the performance is included in this documentary that examines how Davis' groundbreaking fusion of traditional jazz and improvisational rock shook the music world to its very core. Includes insights from Joni Mitchell, Chick Corea, Carlos Santana, and others
Complete name : F:\\DVD\\Miles Davis Miles Electric A Different Kind of Blue(avi)\\Miles Electric.avi
Format: Audio Video Interleave
File size : 1 000 MiB
Duration : 1h 26mn
Overall bit rate : 1 608 Kbps
ID : 0
Format : MPEG-4 Visual
Format profile : Advanced Simple@L5
Format settings, BVOP : Yes
Format settings, QPel : No
Format settings, GMC : No warppoints
Format settings, Matrix : Default (MPEG)
Muxing mode : Packed bitstream
Codec ID : XVID
Duration : 1h 26mn
Bit rate : 1 278 Kbps
Width : 608 pixels
Height : 432 pixels
Display aspect ratio : 1.407
Frame rate : 25.000 fps
Color space : YUV
Chroma subsampling : 4:2:0
Bit depth : 8 bits
Scan type : Progressive
Bits/(Pixel*Frame) : 0.195
Stream size : 795 MiB (79%)
Writing library : XviD 1.2.0.dev47 (UTC 2006-11-01)
ID : 1
Format : MPEG Audio Version 1 Layer 3
Mode : Joint stereo
Codec ID : 55
Codec ID/Hint : MP3
Duration : 1h 26mn
Bit rate mode : Constant
Bit rate : 320 Kbps
Channel(s) : 2 channels
Sampling rate : 48.0 KHz
Stream size : 199 MiB (20%)
Alignment : Aligned on interleaves
Interleave, duration : 40 ms (1.00 video frame)
Interleave, preload duration : 504 ms
Writing library : LAME3.97
Miles Electric.avi 1.048 GB
Miles Electric.avi_thumbs_[2010.10.22_00.29.54].jpg 191.135 KB
Gathering some info...

Register and log in Isohunt and see no captcha anymore!

4000 symbols left
Hash 1B0A249D81CC6D9608F967C812ECF5D7B50E44F5