imdb
rating

6.3
The American

The American (2010)

Crime, Drama, Thriller

Full description
quality   screener dvdrip dvd h264

The American R5 LiNE XviD-TWiZTED

Size 738.239 MB   0 seeders     Added 2010-10-27 23:23:53

Stream torrent
Starting‥ You need BitLord! Get it from 1BitLord.com
To download or stream you need BitLord. Visit them at BitLord.com
Filename:
The American R5 LiNE XviD-TWiZTED

http://www.imdb.com/title/tt1440728/

[IMG]image[/IMG]
[IMG]i1.imageban.ru/out/2010/10/27/f63e4e5695d463979756a39c6c7259eb.jpg[/IMG]
[IMG]i1.imageban.ru/out/2010/10/27/33755d48e3a1128416a36b5054fe07b7.jpg[/IMG]
[IMG]i1.imageban.ru/out/2010/10/27/a4d339c51cc2702bf22ac12b607b58db.jpg[/IMG]
[IMG]i1.imageban.ru/out/2010/10/27/27cd2385d2d24dee891cf290b3e634bf.jpg[/IMG]
[IMG]i1.imageban.ru/out/2010/10/27/5755c77b51739eb47842c8aa19dd9bac.jpg[/IMG]
[IMG]i1.imageban.ru/out/2010/10/27/55e83bb0096a6395d4fcf95af059fc5b.jpg[/IMG]

Video
ID                               : 0
Format                           : MPEG-4 Visual
Format profile                   : AdvancedSimple@L5
Format settings, BVOP            : Yes
Format settings, QPel            : No
Format settings, GMC             : No warppoints
Format settings, Matrix          : Default (MPEG)
Codec ID                         : XVID
Codec ID/Hint                    : XviD
Duration                         : 1h 40mn
Bit rate                         : 832 Kbps
Width                            : 640 pixels
Height                           : 352 pixels
Display aspect ratio             : 16:9
Frame rate                       : 25.000 fps
Resolution                       : 24 bits
Colorimetry                      : 4:2:0
Scan type                        : Progressive
Bits/(Pixel*Frame)               : 0.148
Stream size                      : 599 MiB (86%)
Writing library                  : XviD 1.2.1 (UTC 2008-12-04)

Audio
ID                               : 1
Format                           : MPEG Audio
Format version                   : Version 1
Format profile                   : Layer 3
Format_Settings_Mode             : Joint stereo / MS Stereo
Codec ID                         : 55
Codec ID/Hint                    : MP3
Duration                         : 1h 40mn
Bit rate mode                    : Variable
Bit rate                         : 127 Kbps
Nominal bit rate                 : 128 Kbps
Channel(s)                       : 2 channels
Sampling rate                    : 48.0 KHz
Resolution                       : 16 bits
Video delay                      : 1s 680ms
Stream size                      : 91.2 MiB (13%)
Alignment                        : Split accross interleaves
Interleave, duration             : 24 ms (0.60 video frame)
Interleave, preload duration     : 1527 ms
Writing library                  : LAME3.90.
Encoding settings                : -m j -V 4 -q 2 -lowpass 17.6 --abr 128
The American 2010 R5 www.IWANNADOWNLOAD.com.avi 733.043 MB
Sample.avi 5.194 MB
The American R5 IWANNADOWNLOAD.com.txt 2.653 KB
Gathering some info...

Register and log in Isohunt and see no captcha anymore!

4000 symbols left
Hash 5E6CCC927C7A3EACB9AD72D3DC23AD2D6C3A1879

Related torrents for "The American R5 LiNE XviD-TWiZTED"

Torrent search:

dvd 2010