imdb
rating

6.8
The A-Team

The A-Team (2010)

Action, Adventure, Comedy, Crime, Thriller

Full description
quality   x264 h264 dvdrip telesync cam

Rakta Charitra (2010) 1CD - DVDSCR - Xvid - Team SRG

Size 733.406 MB   0 seeders     Added 2010-10-28 04:58:25

Stream torrent
Starting‥ You need BitLord! Get it from BitLord.com
10
To download or stream you need BitLord. Visit them at BitLord.com
[URL=http://www.grinshare.com/][IMG]image[/IMG][/URL]\r\n[URL=http://www.grinshare.com/][IMG]image[/IMG][/URL]\r\n[URL=http://www.grinshare.com/][IMG]image[/IMG][/URL]\r\n[URL=http://www.grinshare.com/][IMG]image[/IMG][/URL]\r\n[URL=http://www.grinshare.com/][IMG]image[/IMG][/URL]\r\n\r\nGeneral\r\n\r\nComplete name : Rakta Charitra (2010) 1CD - DVDSCR - Xvid - Team SRG.avi\r\nFormat : AVI\r\nFormat/Info : Audio Video Interleave\r\nFile size : 699 MiB\r\nDuration : 2h 2mn\r\nOverall bit rate : 801 Kbps\r\nWriting library : VirtualDub build 32661/release\r\n\r\nVideo\r\nID : 0\r\nFormat : MPEG-4 Visual\r\nFormat profile : Advanced Simple@L5\r\nFormat settings, BVOP : Yes\r\nFormat settings, QPel : No\r\nFormat settings, GMC : No warppoints\r\nFormat settings, Matrix : Default (H.263)\r\nCodec ID : XVID\r\nCodec ID/Hint : XviD\r\nDuration : 2h 2mn\r\nBit rate : 664 Kbps\r\nWidth : 608 pixels\r\nHeight : 272 pixels\r\nDisplay aspect ratio : 2.25:1\r\nFrame rate : 23.976 fps\r\nColor space : YUV\r\nChroma subsampling : 4:2:0\r\nBit depth : 8 bits\r\nScan type : Progressive\r\nBits/(Pixel*Frame) : 0.167\r\nStream size : 579 MiB (83%)\r\nWriting library : XviD 1.2.1 (UTC 2008-12-04)\r\n\r\nAudio\r\nID : 1\r\nFormat : MPEG Audio\r\nFormat version : Version 1\r\nFormat profile : Layer 3\r\nMode : Joint stereo\r\nMode extension : MS Stereo\r\nCodec ID : 55\r\nCodec ID/Hint : MP3\r\nDuration : 2h 2mn\r\nBit rate mode : Constant\r\nBit rate : 128 Kbps\r\nChannel(s) : 2 channels\r\nSampling rate : 48.0 KHz\r\nStream size : 112 MiB (16%)\r\nAlignment : Split accross interleaves\r\nInterleave, duration : 42 ms (1.00 video frame)\r\nInterleave, preload duration : 500 ms\r\nWriting library : LAME3.98r
Rakta Charitra (2010) 1CD - DVDSCR - Xvid - Team SRG.avi 733.139 MB
logo.png.jpeg 266.718 KB
Torrent Tracked By Team SRG.txt 459 B
Gathering some info...

Register and log in Isohunt and see no captcha anymore!

4000 symbols left
Hash 347F427CFD989885D79033F64108B91F9F0F4C98

Related torrents for "Rakta Charitra (2010) 1CD - DVDSCR - Xvid - Team SRG"

Torrent search:

screener 2010