imdb
rating

6.3
The American

The American (2010)

Crime, Drama, Thriller

Full description
quality   screener dvdrip dvd h264

The American 2010 R5 LiNE XviD-ViSiON

Size 1.596 GB   0 seeders     Added 2010-10-28 05:23:28

Stream torrent
Starting‥ You need BitLord! Get it from 1BitLord.com
10
To download or stream you need BitLord. Visit them at BitLord.com
Filename:
The American 2010 R5 LiNE XviD-ViSiON

http://www.imdb.com/title/tt1440728/

[IMG]image[/IMG]
[IMG]image[/IMG]
[IMG]image[/IMG]
[IMG]image[/IMG]
[IMG]image[/IMG]
[IMG]image[/IMG]
[IMG]image[/IMG]
[IMG]image[/IMG]

Video
ID                               : 0
Format                           : MPEG-4 Visual
Format profile                   : AdvancedSimple@L5
Format settings, BVOP            : Yes
Format settings, QPel            : No
Format settings, GMC             : No warppoints
Format settings, Matrix          : Default (H.263)
Muxing mode                      : Packed bitstream
Codec ID                         : XVID
Codec ID/Hint                    : XviD
Duration                         : 1h 40mn
Bit rate                         : 1 901 Kbps
Width                            : 720 pixels
Height                           : 400 pixels
Display aspect ratio             : 16:9
Frame rate                       : 50.000 fps
Resolution                       : 24 bits
Colorimetry                      : 4:2:0
Scan type                        : Progressive
Bits/(Pixel*Frame)               : 0.132
Stream size                      : 1.34 GiB (91%)
Writing library                  : XviD 1.2.1 (UTC 2008-12-04)

Audio
ID                               : 1
Format                           : MPEG Audio
Format version                   : Version 1
Format profile                   : Layer 3
Format_Settings_Mode             : Joint stereo
Codec ID                         : 55
Codec ID/Hint                    : MP3
Duration                         : 1h 40mn
Bit rate mode                    : Constant
Bit rate                         : 192 Kbps
Channel(s)                       : 2 channels
Sampling rate                    : 48.0 KHz
Resolution                       : 16 bits
Stream size                      : 138 MiB (9%)
Alignment                        : Aligned on interleaves
Interleave, duration             : 416 ms (20.81 video frames)
Interleave, preload duration     : 216 ms
Title                            : American_Rx
Writing library                  : LAME3.92 (alpha)
The American 2010 R5 www.IWANNADOWNLOAD.com.avi 1.585 GB
Sample.avi 11.637 MB
The American R5 IWANNADOWNLOAD.com INFO.txt 2.569 KB
Gathering some info...

Register and log in Isohunt and see no captcha anymore!

4000 symbols left
Hash 9D4768FE32B7EFA9F9838CFE7DA878E1318C758B

Related torrents for "The American 2010 R5 LiNE XviD-ViSiON"

Torrent search:

dvd 2010