imdb
rating

7.5
Scott Pilgrim vs. the World

Scott Pilgrim vs. the World (2010)

Action, Adventure, Comedy

Full description

Scott Pilgrim Vs The World 2010 DVDRiP XViD-MC8

Size 746.871 MB   0 seeders     Added 2010-10-29 05:57:03

Stream torrent
Starting‥ You need BitLord! Get it from BitLord.com
10
To download or stream you need BitLord. Visit them at BitLord.com
Filename:
Scott Pilgrim Vs The World 2010 DVDRiP XViD-MC8

http://www.imdb.com/title/tt0446029/

[IMG]image[/IMG]
[IMG]image[/IMG]
[IMG]image[/IMG]
[IMG]image[/IMG]
[IMG]image[/IMG]

Video
ID                               : 0
Format                           : MPEG-4 Visual
Format profile                   : AdvancedSimple@L5
Format settings, BVOP            : Yes
Format settings, QPel            : No
Format settings, GMC             : No warppoints
Format settings, Matrix          : Default (H.263)
Muxing mode                      : Packed bitstream
Codec ID                         : XVID
Codec ID/Hint                    : XviD
Duration                         : 1h 52mn
Bit rate                         : 737 Kbps
Width                            : 648 pixels
Height                           : 350 pixels
Display aspect ratio             : 1.851
Frame rate                       : 23.976 fps
Resolution                       : 24 bits
Colorimetry                      : 4:2:0
Scan type                        : Progressive
Bits/(Pixel*Frame)               : 0.135
Stream size                      : 593 MiB (84%)
Writing library                  : XviD 1.3.0.dev55

Audio
ID                               : 1
Format                           : MPEG Audio
Format version                   : Version 1
Format profile                   : Layer 3
Format_Settings_Mode             : Joint stereo / MS Stereo
Codec ID                         : 55
Codec ID/Hint                    : MP3
Duration                         : 1h 52mn
Bit rate mode                    : Variable
Bit rate                         : 123 Kbps
Minimum bit rate                 : 96.0 Kbps
Channel(s)                       : 2 channels
Sampling rate                    : 48.0 KHz
Resolution                       : 16 bits
Stream size                      : 98.7 MiB (14%)
Alignment                        : Aligned on interleaves
Interleave, duration             : 24 ms (0.58 video frame)
Interleave, preload duration     : 150 ms
Writing library                  : LAME3.98r
Encoding settings                : -m j -V 4 -q 0 -lowpass 17.5 --vbr-new -b 96
Scott Pilgrim Vs The World 2010 DVDRip www.IWANNADOWNLOAD.com.avi 736.281 MB
Sample.avi 10.588 MB
Scott Pilgrim DVD IWANNADOWNLOAD.com INFO.txt 2.459 KB
Gathering some info...

Register and log in Isohunt and see no captcha anymore!

4000 symbols left
Hash 954D3751DE1A2B904291CEC257C7379ED4D9ABD6

Related torrents for "Scott Pilgrim Vs The World 2010 DVDRiP XViD-MC8"

Torrent search:

dvdrip 2010