Go!

Go! (1983)

Family

Full description

Se7en - IM Going Crazy [GOM TV (Crystal Clear 1080p)]

Size 384.095 MB   0 seeders     Added 2010-10-30 03:49:07

Stream torrent
Starting‥ You need BitLord! Get it from BitLord.com
To download or stream you need BitLord. Visit them at BitLord.com
Info:
Video
Format : MPEG-4 Visual
Format profile : Simple@L1
Format settings, BVOP : No
Format settings, QPel : No
Format settings, GMC : No warppoints
Format settings, Matrix : Default
Codec ID : XVID
Codec ID/Hint : XviD
Duration : 4mn 57s
Bit rate : 10.0 Mbps
Width : 1920 pixels
Height : 1080 pixels
Display aspect ratio : 16/9
Frame rate : 29.970 fps
Resolution : 8 bits
Colorimetry : 4:2:0
Scan type : Progressive
Bits/(Pixel*Frame) : 0.161
Stream size : 354 MiB (97%)
Writing library : Lavc52.10.0
Audio
Format : MPEG Audio
Format version : Version 1
Format profile : Layer 3
Codec ID : 55
Codec ID/Hint : MP3
Duration : 4mn 57s
Bit rate mode : Constant
Bit rate : 320 Kbps
Channel(s) : 2 channels
Sampling rate : 44.1 KHz
Resolution : 16 bits
Stream size : 11.3 MiB (3%)
Alignment : Aligned on interleaves
Interleave, duration : 26 ms (0.78 video frame)
Interleave, preload duration : 52 ms
Writing library : LAME3.97 (beta)
Plz Seed 
;) This Crystal Clear Video...
Screens:
<img>image</img> 
Se7en-Im_Going_Crazy_GomTV_1080p_MoL.avi 384.095 MB
Gathering some info...

Register and log in Isohunt and see no captcha anymore!

4000 symbols left
Hash 6575304EC39A27D1F4E7C9F3B6713A43A5E351FE

Related torrents for "Se7en - IM Going Crazy [GOM TV (Crystal Clear 1080p)]"

Torrent search:

fullhd