F/X 2: The Deadly Art of Illusion

F/X 2: The Deadly Art of Illusion (1991)

Action, Adventure, Comedy, Thriller

Full description
quality   x264 h264 fullhd bd

FX2 The Deadly Art of Illusion DVD9rip English Klam

Size 1.684 GB   0 seeders     Added 2010-10-31 04:04:21

Stream torrent
Starting‥ You need BitLord! Get it from
To download or stream you need BitLord. Visit them at
[IMG]image[/IMG]\r\n\r\nWith: Bryan Brown, Brian Dennehy en Rachel Ticotin\r\n\r\nF/X man Rollie Tyler is now a toymaker. Mike, the ex-husband of his girlfriend, Kim is a cop. He asks Rollie to help him catch a killer. And the operation was going well when some unknown man kills both the killer and Mike. Mike's boss, Silak says it was the killer who killed Mike but Rollie knows it wasn't. Obviously Silak is involved with Mike's death, so he calls on Leo McCarthy, the cop from the last movie, who is now a P.I. for help. And they discover it's not just Silak whom they have to worry about.\r\n\r\n	\r\n\r\nGeneral:\r\n\r\nComplete name                    : Klambake\\FX2\\FX2.avi\r\nFormat                           : AVI\r\nFormat/Info                      : Audio Video Interleave\r\nFile size                        : 1.57 GiB\r\nDuration                         : 1h 43mn\r\nOverall bit rate                 : 2 167 Kbps\r\n\r\nVideo:\r\n\r\nFormat                           : MPEG-4 Visual\r\nFormat profile                   : Simple@L3\r\nFormat settings, BVOP            : No\r\nFormat settings, QPel            : No\r\nFormat settings, GMC             : No warppoints\r\nFormat settings, Matrix          : Default (H.263)\r\nCodec ID                         : XVID\r\nCodec ID/Hint                    : XviD\r\nDuration                         : 1h 43mn\r\nBit rate                         : 1 964 Kbps\r\nWidth                            : 720 pixels\r\nHeight                           : 576 pixels\r\nDisplay aspect ratio             : 5:4\r\nFrame rate                       : 25.000 fps\r\nStandard                         : PAL\r\nColor space                      : YUV\r\nChroma subsampling               : 4:2:0\r\nBit depth                        : 8 bits\r\nScan type                        : Progressive\r\nBits/(Pixel*Frame)               : 0.189\r\nStream size                      : 1.42 GiB (91%)\r\nWriting library                  : XviD 1.1.2 (UTC 2006-11-01)\r\n\r\nAudio:\r\n\r\nFormat                           : AC-3\r\nFormat/Info                      : Audio Coding 3\r\nFormat profile                   : Dolby Digital\r\nMode extension                   : CM (complete main)\r\nCodec ID                         : 2000\r\nDuration                         : 1h 43mn\r\nBit rate mode                    : Constant\r\nBit rate                         : 192 Kbps\r\nChannel(s)                       : 2 channels\r\nChannel positions                : Front: L R\r\nSampling rate                    : 48.0 KHz\r\nBit depth                        : 16 bits\r\nStream size                      : 142 MiB (9%)\r\nAlignment                        : Aligned on interleaves\r\nInterleave, duration             : 32 ms (0.80 video frame)\r\nInterleave, preload duration     : 64 ms
Cover/00 Film-Terminal-Flyer org.JPG 272.216 KB
Cover/flyer2Lions.jpg 375.297 KB
Cover/FX2.jpg 409.46 KB
Gathering some info...

Register and log in Isohunt and see no captcha anymore!

4000 symbols left
Hash 16D573BAAE42BFCE0089C8F94BE800475335184A

Related torrents for "FX2 The Deadly Art of Illusion DVD9rip English Klam"

Torrent search: