FX 1986 DVD9rip English Klam

Size 1.682 GB   0 seeders     Added 2010-10-31 04:05:06

Stream torrent
Starting‥ You need BitLord! Get it from BitLord.com
To download or stream you need BitLord. Visit them at BitLord.com
[IMG]image[/IMG]\r\n\r\nWith: Bryan Brown, Brian Dennehy en Diane Venora\r\n\r\nA movies special effects man is hired by a government agency to help stage the assassination of a well known gangster. When the agency double cross him, he uses his special effects to trap the gangster and the corrupt agents.\r\n\r\nhttp://www.imdb.com/title/tt0089118	\r\n\r\nGeneral:\r\n\r\nComplete name                    : Klambake\\FX\\FX.avi\r\nFormat                           : AVI\r\nFormat/Info                      : Audio Video Interleave\r\nFile size                        : 1.57 GiB\r\nDuration                         : 1h 43mn\r\nOverall bit rate                 : 2 157 Kbps\r\n\r\nVideo:\r\n\r\nFormat                           : MPEG-4 Visual\r\nFormat profile                   : Simple@L3\r\nFormat settings, BVOP            : No\r\nFormat settings, QPel            : No\r\nFormat settings, GMC             : No warppoints\r\nFormat settings, Matrix          : Default (H.263)\r\nCodec ID                         : XVID\r\nCodec ID/Hint                    : XviD\r\nDuration                         : 1h 43mn\r\nBit rate                         : 1 954 Kbps\r\nWidth                            : 720 pixels\r\nHeight                           : 576 pixels\r\nDisplay aspect ratio             : 5:4\r\nFrame rate                       : 25.000 fps\r\nStandard                         : PAL\r\nColor space                      : YUV\r\nChroma subsampling               : 4:2:0\r\nBit depth                        : 8 bits\r\nScan type                        : Progressive\r\nBits/(Pixel*Frame)               : 0.189\r\nStream size                      : 1.42 GiB (91%)\r\nWriting library                  : XviD 1.1.2 (UTC 2006-11-01)\r\n\r\nAudio:\r\n\r\nFormat                           : AC-3\r\nFormat/Info                      : Audio Coding 3\r\nFormat profile                   : Dolby Digital\r\nMode extension                   : CM (complete main)\r\nCodec ID                         : 2000\r\nDuration                         : 1h 43mn\r\nBit rate mode                    : Constant\r\nBit rate                         : 192 Kbps\r\nChannel(s)                       : 2 channels\r\nChannel positions                : Front: L R\r\nSampling rate                    : 48.0 KHz\r\nBit depth                        : 16 bits\r\nStream size                      : 143 MiB (9%)\r\nAlignment                        : Aligned on interleaves\r\nInterleave, duration             : 32 ms (0.80 video frame)\r\nInterleave, preload duration     : 448 ms
Cover/00 Film-Terminal-Flyer org.JPG 272.216 KB
Cover/flyer2Lions.jpg 375.297 KB
Cover/FX.jpg 228.475 KB
Gathering some info...

Register and log in Isohunt and see no captcha anymore!

4000 symbols left
Hash EB030AF2BC627DDD9789B55958428B4BDD94A377