imdb
rating

5.3
The Hungry Ghosts

The Hungry Ghosts (2009)

Drama

Full description
quality   dvdrip

The Hungry Ghosts 2009 DVDRip Xvid AC3-Freebee269

Size 1.519 GB   0 seeders     Added 2010-11-03 21:42:01

Stream torrent
Starting‥ You need BitLord! Get it from BitLord.com
To download or stream you need BitLord. Visit them at BitLord.com
Filename:
The Hungry Ghosts 2009 DVDRip Xvid AC3-Freebee269

[IMG]image[/IMG]
[IMG]image[/IMG]
[IMG]image[/IMG]
[IMG]image[/IMG]
[IMG]image[/IMG]

Video
ID                               : 0
Format                           : MPEG-4 Visual
Format profile                   : Advanced Simple@L5
Format settings, BVOP            : Yes
Format settings, QPel            : No
Format settings, GMC             : No warppoints
Format settings, Matrix          : Default (MPEG)
Codec ID                         : XVID
Codec ID/Hint                    : XviD
Duration                         : 1h 47mn
Bit rate                         : 1 634 Kbps
Width                            : 720 pixels
Height                           : 384 pixels
Display aspect ratio             : 1.875
Frame rate                       : 23.976 fps
Color space                      : YUV
Chroma subsampling               : 4:2:0
Bit depth                        : 8 bits
Scan type                        : Progressive
Bits/(Pixel*Frame)               : 0.246
Stream size                      : 1.22 GiB (88%)
Writing library                  : XviD 1.2.1 (UTC 2008-12-04)

Audio
ID                               : 1
Format                           : AC-3
Format/Info                      : Audio Coding 3
Mode extension                   : CM (complete main)
Codec ID                         : 2000
Duration                         : 1h 47mn
Bit rate mode                    : Constant
Bit rate                         : 224 Kbps
Channel(s)                       : 2 channels
Channel positions                : Front: L R
Sampling rate                    : 48.0 KHz
Bit depth                        : 16 bits
Stream size                      : 172 MiB (12%)
Alignment                        : Aligned on interleaves
Interleave, duration             : 64 ms (1.53 video frames)
Interleave, preload duration     : 192 ms
Title                            : VTS_01_1 T80 2_0ch 224Kbps DELAY 0ms english

http://www.imdb.com/title/tt1225902/

Actors: Steve Schirripa, Aunjanue Ellis, Nick Sandow, Sharon Angela
Directors: Michael Imperioli
Language: English
Rated: R (Restricted)
Studio: Virgil Films and Entertainment
DVD Release Date: November 2, 2010
Run Time: 104 minutes
Encoder: Freebee269
The Hungry Ghosts 2009 DVDRip www.IWANNADOWNLOAD.com.avi 1.496 GB
Sample.avi 23.441 MB
The Hungry Ghosts DVD IWANNADOWNLOAD.com INFO.txt 2.702 KB
Gathering some info...

Register and log in Isohunt and see no captcha anymore!

4000 symbols left
Hash DE15255F2A459F73362277A828A9FB8D1BED7A8C

Related torrents for "The Hungry Ghosts 2009 DVDRip Xvid AC3-Freebee269"

Torrent search:

dvdrip 2009