imdb
rating

5.6
Chatroom

Chatroom (2010)

Drama, Thriller, Foreign

Full description
quality   dvd dvdr bd hd x264 fullhd

Chatroom R5 AC3 XViD - IMAGiNE

Size 1.491 GB   0 seeders     Added 2010-11-04 00:00:13

Stream torrent
Starting‥ You need BitLord! Get it from 1BitLord.com
To download or stream you need BitLord. Visit them at BitLord.com
Filename:
Chatroom R5 AC3 XViD - IMAGiNE

http://www.imdb.com/title/tt1319704/

[IMG]image[/IMG]
[IMG]image[/IMG]
[IMG]image[/IMG]
[IMG]image[/IMG]
[IMG]image[/IMG]
[IMG]image[/IMG]
[IMG]image[/IMG]
[IMG]image[/IMG]

DETAILS:

Video
ID                               : 0
Format                           : MPEG-4 Visual
Format profile                   : Advanced Simple@L5
Format settings, BVOP            : Yes
Format settings, QPel            : No
Format settings, GMC             : No warppoints
Format settings, Matrix          : Default (H.263)
Muxing mode                      : Packed bitstream
Codec ID                         : XVID
Codec ID/Hint                    : XviD
Duration                         : 1h 33mn
Bit rate                         : 1 642 Kbps
Width                            : 720 pixels
Height                           : 400 pixels
Display aspect ratio             : 16:9
Frame rate                       : 25.000 fps
Color space                      : YUV
Chroma subsampling               : 4:2:0
Bit depth                        : 8 bits
Scan type                        : Progressive
Bits/(Pixel*Frame)               : 0.228
Stream size                      : 1.07 GiB (78%)
Writing library                  : XviD 1.1.2 (UTC 2006-11-01)

Audio
ID                               : 1
Format                           : AC-3
Format/Info                      : Audio Coding 3
Mode extension                   : CM (complete main)
Codec ID                         : 2000
Duration                         : 1h 33mn
Bit rate mode                    : Constant
Bit rate                         : 448 Kbps
Channel(s)                       : 6 channels
Channel positions                : Front: L C R, Side: L R, LFE
Sampling rate                    : 48.0 KHz
Bit depth                        : 16 bits
Stream size                      : 300 MiB (21%)
Alignment                        : Aligned on interleaves
Interleave, duration             : 40 ms (1.00 video frame)
Interleave, preload duration     : 512 ms


SOURCES:

VIDEO:Chat.2010.D.DVD.ELEKTRI4KA ............... Thanks m8
AUDIO:Chat.2010.D.DVD.ELEKTRI4KA ............... Thanks m8

NOTES:

IMAGiNE bringing you another release..........Chatroom 2010

Here we go we a simple rip of the russian dvd9 of chatroom
The source was good and audio was mint to we just did a straight forward rip with a few tweaks.
Audio we stripped the AC3 track and then remuxed to our encode.

Enjoy folks 
Chatroom 2010 R5 DVDRip www.IWANNADOWNLOAD.com.avi 1.472 GB
SAMPLE.avi 18.407 MB
Chatroom R5 IWANNADOWNLOAD.com INFO.txt 2.971 KB
Gathering some info...

Register and log in Isohunt and see no captcha anymore!

4000 symbols left
Hash 93F50FF8ABC92099722D5803BD3418AFBC04F6ED

Related torrents for "Chatroom R5 AC3 XViD - IMAGiNE"

Torrent search:

dvd 2010