megamind.2010.CAM.XVID.LU. [twilighttorrents.net]

Size 735.873 MB   0 seeders     Added 2010-11-06 09:23:52

10
To download or stream you need BitLord. Visit them at BitLord.com
omplete name : megamind.2010.CAM.XVID.LU.



Format : AVI



Format/Info : Audio Video Interleave



File size : 709 MiB



Duration : 1h 25mn



Overall bit rate : 1 155 Kbps



Writing application : VirtualDubMod 1.5.10.2 (build 2540/release)



Writing library : VirtualDub build 32706/release







Video



ID : 0



Format : MPEG-4 Visual



Format profile : Advanced Simple@L5



Format settings, BVOP : Yes



Format settings, QPel : No



Format settings, GMC : No warppoints



Format settings, Matrix : Default (H.263)



Codec ID : XVID



Codec ID/Hint : XviD



Duration : 1h 25mn



Bit rate : 1 017 Kbps



Width : 672 pixels



Height : 320 pixels



Display aspect ratio : 2.100



Frame rate : 25.000 fps



Color space : YUV



Chroma subsampling : 4:2:0



Bit depth : 8 bits



Scan type : Progressive



Bits/(Pixel*Frame) : 0.189



Stream size : 624 MiB (88%)



Writing library : XviD 1.2.0.dev47 (UTC 2006-11-01)







Audio



ID : 1



Format : MPEG Audio



Format version : Version 1



Format profile : Layer 3



Codec ID : 55



Codec ID/Hint : MP3



Duration : 1h 25mn



Bit rate mode : Constant



Bit rate : 128 Kbps



Channel(s) : 2 channels



Sampling rate : 44.1 KHz



Stream size : 78.6 MiB (11%)



Alignment : Split accross interleaves



Interleave, duration : 40 ms (1.00 video frame)



Interleave, preload duration : 500 ms



Writing library : LAME3.98.2











READ NOTES







OK WE USE THE megamosk.2010.D.CAMRip.relizlab THANKS GUYS GREAT WORK







NOW AUDIO OUR OWN REAL GOOD CAM AUDIO ( L U ) JUST PUT IT ON VIDEO AND PUT IT OUT NO WORK DONE ON VIDEO







NOW BIG THANKS TO BOOBIES FOR GETING IT OUR THERE FOR ME ( SHOW THEM TO ME )







WERE GOT LOT MORE FIRST CAMS IN THE WORKS SO YOU BE SEENING LOT MORE OF OUR WORK







P.S IF YOU DONT LIKE THEN MOVE A LONG. AS WE PAY FOR IT YOU NEVER
Poster Poster
IMPORTANT.TXT 214 B
megamind.2010.CAM.XVID.LU.avi.txt 2.658 KB
megamind.2010.Cam.XVID.LU.part01.rar 15 MB
Gathering some info...

Register and log in Isohunt and see no captcha anymore!

4000 symbols left
Hash 4A4F3D5915884662244B1685B72E931FBDFE6927