Due Date

Due Date (2010)

Comedy, Drama

Full description
quality   screener cam dvdrip telesync

Due Date 2010 CAM

Size 1.072 GB   0 seeders     Added 2010-11-09 22:24:00

Stream torrent
Starting You need BitLord! Get it from
To download or stream you need BitLord. Visit them at



ID                               : 0
Format                           : MPEG-4 Visual
Format profile                   : Advanced Simple@L5
Format settings, BVOP            : Yes
Format settings, QPel            : No
Format settings, GMC             : No warppoints
Format settings, Matrix          : Default (H.263)
Muxing mode                      : Packed bitstream
Codec ID                         : XVID
Codec ID/Hint                    : XviD
Duration                         : 1h 29mn
Bit rate                         : 1 421 Kbps
Width                            : 672 pixels
Height                           : 304 pixels
Display aspect ratio             : 2.2:1
Frame rate                       : 23.976 fps
Color space                      : YUV
Chroma subsampling               : 4:2:0
Bit depth                        : 8 bits
Scan type                        : Progressive
Bits/(Pixel*Frame)               : 0.290
Stream size                      : 913 MiB (91%)
Writing library                  : XviD 1.1.2 (UTC 2006-11-01)

ID                               : 1
Format                           : MPEG Audio
Format version                   : Version 1
Format profile                   : Layer 3
Mode                             : Joint stereo
Mode extension                   : MS Stereo
Codec ID                         : 55
Codec ID/Hint                    : MP3
Duration                         : 1h 29mn
Bit rate mode                    : Constant
Bit rate                         : 128 Kbps
Channel(s)                       : 2 channels
Sampling rate                    : 44.1 KHz
Stream size                      : 82.3 MiB (8%)
Alignment                        : Aligned on interleaves
Interleave, duration             : 26 ms (0.63 video frame)
Interleave, preload duration     : 522 ms


VIDEO:Russian cam and Spanish cam ......Thanks both
AUDIO:LU\'s ........Thanks bro ;-)


IMAGiNE bringing you another release..........Due Date we go with a FULL version on due date no missing 7mins now
For this we took the spanish release which was full and cut the scenes we needed and added them
to the russian video.
Now the spanish video looks a little clear,sharper ..however had bad angles and cropped way more so we
opted to stick with the russian video as the main body for this.
For the parts we added we had to resize the spanish video to match the res of the russian release so we could mux
it together so there is some slight AR issue when this happens.
Both videos have been filtered .......the main issues was the glares and way too much colour,so made a script to tone the
glares down and lowered the colour alot and also slightly corrected them aswell.
The audio .....well thanks to LU for sending us the full audio file so we could get this synced ;-)

Anyway Enjoy folks
Due.Date 2010 CAM 1.052 GB
SAMPLE.avi 19.368 MB
Due Date CAM INFO.txt 3.502 KB
Gathering some info...

Register and log in Isohunt and see no captcha anymore!

4000 symbols left
Hash 769DD803D9BCD65E2B96AAA7D66EB2017D7E9044

Related torrents for "Due Date 2010 CAM"

Torrent search:

cam 2010