imdb
rating

6.0
How the Grinch Stole Christmas

How the Grinch Stole Christmas (2000)

Comedy, Fantasy, Family

Full description
quality   hd bd dvdrip dvdr x264 fullhd

How the Grinch Stole Christmas 2000 DVD9rip English Klam

Size 1.684 GB   0 seeders     Added 2010-11-12 14:38:00

Stream torrent
Starting‥ You need BitLord! Get it from 1BitLord.com
To download or stream you need BitLord. Visit them at BitLord.com
[img]image[/img]

With: Jim Carrey, Taylor Momsen and Jeffrey Tambor

Based on the book by the famous Dr. Seuss. Inside a snowflake exists the magical land of Whoville. In Whoville, live the Who's, an almost mutated sort of munchkinlike people. All the Who's love Christmas, yet just outside of their beloved Whoville lives the Grinch. The Grinch is a nasty creature that hates Christmas, and plots to steal it away from the Whos which he equally abhors. Yet a small child, Cindy Lou Who, decides to try befriend the Grinch.

http://www.imdb.com/title/tt0170016	

General:

Complete name                    : Klambake\The Grinch\The Grinch.avi
Format                           : AVI
Format/Info                      : Audio Video Interleave
File size                        : 1.57 GiB
Duration                         : 1h 40mn
Overall bit rate                 : 2 230 Kbps

Video:

Format                           : MPEG-4 Visual
Format profile                   : Simple@L3
Format settings, BVOP            : No
Format settings, QPel            : No
Format settings, GMC             : No warppoints
Format settings, Matrix          : Default (H.263)
Codec ID                         : XVID
Codec ID/Hint                    : XviD
Duration                         : 1h 40mn
Bit rate                         : 1 836 Kbps
Width                            : 720 pixels
Height                           : 576 pixels
Display aspect ratio             : 5:4
Frame rate                       : 25.000 fps
Standard                         : PAL
Color space                      : YUV
Chroma subsampling               : 4:2:0
Bit depth                        : 8 bits
Scan type                        : Progressive
Bits/(Pixel*Frame)               : 0.177
Stream size                      : 1.29 GiB (82%)
Writing library                  : XviD 1.1.2 (UTC 2006-11-01)

Audio:

Format                           : AC-3
Format/Info                      : Audio Coding 3
Mode extension                   : CM (complete main)
Codec ID                         : 2000
Duration                         : 1h 40mn
Bit rate mode                    : Constant
Bit rate                         : 384 Kbps
Channel(s)                       : 6 channels
Channel positions                : Front: L C R, Side: L R, LFE
Sampling rate                    : 48.0 KHz
Bit depth                        : 16 bits
Stream size                      : 276 MiB (17%)
Alignment                        : Aligned on interleaves
Interleave, duration             : 32 ms (0.80 video frame)
Interleave, preload duration     : 768 ms
The Grinch/Cover/00 Film-Terminal-Flyer org.JPG 272.216 KB
The Grinch/Cover/flyer2Lions.jpg 375.297 KB
The Grinch/The Grinch.avi 1.683 GB
Gathering some info...

Register and log in Isohunt and see no captcha anymore!

4000 symbols left
Hash 03f5558e186fd34a60287b77452cb73175aa33f8

Related torrents for "How the Grinch Stole Christmas 2000 DVD9rip English Klam"

Torrent search:

english 2000