imdb
rating

5.6
Just Imagine

Just Imagine (1930)

Science Fiction

Full description
quality   telesync dvdrip dvd bd cam

Easy A TS XViD - IMAGiNE [twilighttorrents.net]

Size 1.384 GB   1 seeders     Added 2010-11-15 01:27:26

Stream torrent
Starting‥ You need BitLord! Get it from 1BitLord.com
To download or stream you need BitLord. Visit them at BitLord.com
[center][img]image[/img][b]    Another Fine Release Brought to you from - IMAGiNE                   
                                                 

********************************************************************************************************************                                
                                           Easy A TS XViD - IMAGiNE
********************************************************************************************************************

Ripper ...........: IMAGiNE                                        IMDB Rating.......:7.7/10                             
Video Codec.......: XVID                                         Release Date......:14/11/10
Audio Codec.......:MP3                                           Theatre Date......:17/09/10
Audio Bitrate.....:128                                              Runtime.......:1h 27mn
Subtitles.........:ENG                                                 Language..........:ENGLISH
Resolution...... 704 x 384                                      IMDb URL.......... http://www.imdb.com/title/tt1282140/


[color=yellow]DETAILS:[/color]

Video
ID                               : 0
Format                           : MPEG-4 Visual
Format profile                   : Advanced Simple@L5
Format settings, BVOP            : Yes
Format settings, QPel            : No
Format settings, GMC             : No warppoints
Format settings, Matrix          : Default (H.263)
Muxing mode                      : Packed bitstream
Codec ID                         : XVID
Codec ID/Hint                    : XviD
Duration                         : 1h 27mn
Bit rate                         : 1 956 Kbps
Width                            : 704 pixels
Height                           : 384 pixels
Display aspect ratio             : 16:9
Frame rate                       : 25.000 fps
Color space                      : YUV
Chroma subsampling               : 4:2:0
Bit depth                        : 8 bits
Scan type                        : Progressive
Bits/(Pixel*Frame)               : 0.289
Stream size                      : 1.19 GiB (93%)
Writing library                  : XviD 1.1.2 (UTC 2006-11-01)

Audio
ID                               : 1
Format                           : MPEG Audio
Format version                   : Version 1
Format profile                   : Layer 3
Mode                             : Joint stereo
Mode extension                   : MS Stereo
Codec ID                         : 55
Codec ID/Hint                    : MP3
Duration                         : 1h 27mn
Bit rate mode                    : Constant
Bit rate                         : 128 Kbps
Channel(s)                       : 2 channels
Sampling rate                    : 44.1 KHz
Stream size                      : 80.0 MiB (6%)
Alignment                        : Split accross interleaves
Interleave, duration             : 40 ms (1.00 video frame)
Interleave, preload duration     : 500 ms


[color=yellow]SOURCES:[/color]

VIDEO:Russian cam.......Thanks
AUDIO:OWN

[color=yellow]NOTES:[/color]

IMAGiNE bringing you another release.......... Easy A

Right first the sources .....the russian video was ok for a cam,but nothing to write home about.It was dull
had a far bit of noise,colours were way off.
Now the audio ...in our opinion was and is really nice line :)
Work done,well first we synced this up to our line audio.....wasn't too bad,but there was a few parts so there might be some
slight oos and i mean like 100 either way ....and only for a short time.
Then we moved onto the video.....now first we made a .srt file for the begining as the subs were in russian.Then we filtered the video.
We made a script to remove the video noise,made it brighter,changed the colouring and also lowered the chroma aswell as a few other
things.

Anyway not a bad TS .....seen worse and at least we have decent audio for the R5 :)

[color=yellow]SCREENS:[/color]

[IMG]image[/IMG]
[IMG]image[/IMG]
[IMG]image[/IMG]
[IMG]image[/IMG]
[IMG]image[/IMG]


[color=yellow]GREETS:[/color]

FLAWL3SS,ViSiON,FUSiON,Rx,SecretMyth,BirdFlu,ELEKTRI4KA and Autotron
And to all the other p2p grps past and present 

[COLOR=RED]Looking for these,syncers,cammers,silver supplier.....Have anything to offer????......
Contact us imaginegroup@hushmail.com[/COLOR][/center][/b]
EA.r00 15 MB
EA.r01 15 MB
EA.r02 15 MB
Gathering some info...

Register and log in Isohunt and see no captcha anymore!

4000 symbols left
Hash A732A591528A4F2EB5BEC118A4C63932D3C4D573

Related torrents for "Easy A TS XViD - IMAGiNE [twilighttorrents.net]"

Torrent search:

telesync