Bun B ft Drake - Put It Down [KingPinVideos]

Size 102.447 MB   0 seeders     Added 2010-11-15 06:39:09

Stream torrent
Starting‥ You need BitLord! Get it from BitLord.com
To download or stream you need BitLord. Visit them at BitLord.com
[img]image[/img]

[img]image[/img]

[code]General
Complete name                    : Bun B ft Drake - Put It Down [KingPinVideos].mpg
Format                           : MPEG-PS
File size                        : 97.7 MiB
Duration                         : 4mn 46s
Overall bit rate                 : 2 856 Kbps
Writing library                  : encoded by TMPGEnc 4.0 XPress Version. 4.7.4.299

Video
ID                               : 224 (0xE0)
Format                           : MPEG Video
Format version                   : Version 1
Format settings, BVOP            : Yes
Format settings, Matrix          : Default
Duration                         : 4mn 46s
Bit rate mode                    : Constant
Bit rate                         : 2 615 Kbps
Nominal bit rate                 : 2 700 Kbps
Width                            : 384 pixels
Height                           : 208 pixels
Display aspect ratio             : 16:9
Frame rate                       : 29.970 fps
Resolution                       : 8 bits
Scan type                        : Progressive
Bits/(Pixel*Frame)               : 1.092
Stream size                      : 89.4 MiB (92%)
Writing library                  : TMPGEnc XPress 4.7.4.299

Audio
ID                               : 192 (0xC0)
Format                           : MPEG Audio
Format version                   : Version 1
Format profile                   : Layer 2
Duration                         : 4mn 46s
Bit rate mode                    : Constant
Bit rate                         : 128 Kbps
Channel(s)                       : 2 channels
Sampling rate                    : 48.0 KHz
Stream size                      : 4.38 MiB (4%)[/code]
Bun B ft Drake - Put It Down [KingPinVideos].mpg 102.443 MB
Bun B ft Drake - Put It Down [KingPinVideos].nfo 1.841 KB
Bun B ft Drake - Put It Down [KingPinVideos].txt 1.673 KB
Gathering some info...

Register and log in Isohunt and see no captcha anymore!

4000 symbols left
Hash 09589EE66329137D9263B7659A208E1755FF14B3