imdb
rating

8.2
Rebecca

Rebecca (1940)

Drama, Mystery, Thriller, Romance

Full description
quality   dvdrip hdtv hd h264 x264 dvdr bd

Rebecca (1940)[DVDRip][big dad e]

Size 1.316 GB   0 seeders     Added 2010-11-16 02:58:09

Stream torrent
Starting‥ You need BitLord! Get it from BitLord.com
8.3
To download or stream you need BitLord. Visit them at BitLord.com
[IMG]image[/IMG]\r\nRebecca (1940)  The Criterion Collection, (Out of Print)\r\n\r\nDirector: Alfred Hitchcock\r\n\r\nRebecca is a 1940 psychological dramatic thriller directed by Alfred Hitchcock as his first American project, and his first film produced under his contract with David O. Selznick. The film's screenplay was an adaptation by Joan Harrison and Robert E. Sherwood from Philip MacDonald and Michael Hogan's adaptation of Daphne du Maurier's 1938 novel of the same name, and was produced by Selznick. It stars Laurence Olivier as the aristocratic widower Maxim de Winter, Joan Fontaine as his second wife, and Judith Anderson as the housekeeper, Mrs. Danvers.\r\n\r\nThe film is a gothic tale about the lingering memory of the title character, Maxim de Winter's dead first wife, which continues to haunt Maxim, his new bride, and Mrs. Danvers. The film won two Academy Awards, including Best Picture out of a total 11 nominations. Olivier, Fontaine and Anderson were all Oscar nominated for their respective roles. Since the introduction of awards for actors in supporting roles, this is the only film named Best Picture that won no other Academy Award for acting, directing or writing.\r\n\r\nIt was the opening film at the 1st Berlin International Film Festival.\r\n\r\nMedia Info:\r\nGeneral\r\nComplete name                    : J:\\Seeding\\Rebecca (1940)[DVDRip][big_dad_e]\\Rebecca (1940)[DVDRip][big_dad_e].avi\r\nFormat                           : AVI\r\nFormat/Info                      : Audio Video Interleave\r\nFile size                        : 1.23 GiB\r\nDuration                         : 2h 11mn\r\nOverall bit rate                 : 1 339 Kbps\r\n\r\nVideo\r\nID                               : 0\r\nFormat                           : MPEG-4 Visual\r\nFormat profile                   : Simple@L1\r\nFormat settings, BVOP            : No\r\nFormat settings, QPel            : No\r\nFormat settings, GMC             : No warppoints\r\nFormat settings, Matrix          : Default (H.263)\r\nCodec ID                         : DIVX\r\nCodec ID/Info                    : Project Mayo\r\nCodec ID/Hint                    : DivX 4\r\nDuration                         : 2h 11mn\r\nBit rate                         : 1 197 Kbps\r\nWidth                            : 720 pixels\r\nHeight                           : 480 pixels\r\nDisplay aspect ratio             : 4:3\r\nFrame rate                       : 29.970 fps\r\nStandard                         : NTSC\r\nColor space                      : YUV\r\nChroma subsampling               : 4:2:0\r\nBit depth                        : 8 bits\r\nScan type                        : Progressive\r\nBits/(Pixel*Frame)               : 0.116\r\nStream size                      : 1.10 GiB (89%)\r\nWriting library                  : avc2.0.11.1110\r\n\r\nAudio\r\nID                               : 1\r\nFormat                           : MPEG Audio\r\nFormat version                   : Version 1\r\nFormat profile                   : Layer 3\r\nMode                             : Joint stereo\r\nMode extension                   : MS Stereo\r\nCodec ID                         : 55\r\nCodec ID/Hint                    : MP3\r\nDuration                         : 2h 11mn\r\nBit rate mode                    : Constant\r\nBit rate                         : 128 Kbps\r\nChannel(s)                       : 2 channels\r\nSampling rate                    : 48.0 KHz\r\nStream size                      : 120 MiB (10%)\r\nAlignment                        : Aligned on interleaves\r\nInterleave, duration             : 24 ms (0.72 video frame)\r\n\r\nFile Scan:\r\nMalwarebytes' Anti-Malware 1.46\r\nwww.malwarebytes.org\r\n\r\nDatabase version: 5068\r\n\r\nWindows 5.1.2600 Service Pack 3\r\nInternet Explorer 8.0.6001.18702\r\n\r\n11/7/2010 11:26:29 PM\r\nmbam-log-2010-11-07 (23-26-29).txt\r\n\r\nScan type: Quick scan\r\nObjects scanned: 7\r\nTime elapsed: 8 second(s)\r\n\r\nMemory Processes Infected: 0\r\nMemory Modules Infected: 0\r\nRegistry Keys Infected: 0\r\nRegistry Values Infected: 0\r\nRegistry Data Items Infected: 0\r\nFolders Infected: 0\r\nFiles Infected: 0\r\n\r\nMemory Processes Infected:\r\n(No malicious items detected)\r\n\r\nMemory Modules Infected:\r\n(No malicious items detected)\r\n\r\nRegistry Keys Infected:\r\n(No malicious items detected)\r\n\r\nRegistry Values Infected:\r\n(No malicious items detected)\r\n\r\nRegistry Data Items Infected:\r\n(No malicious items detected)\r\n\r\nFolders Infected:\r\n(No malicious items detected)\r\n\r\nFiles Infected:\r\n(No malicious items detected)\r\nALWAYS SEED & THANKS SEEDERS!\r\n[URL=http://]http://www.imdb.com/title/tt0032976/[/URL]
big_dad_e.jpg 17.461 KB
filesharing_not_illegal_yet.jpg 265.077 KB
Rebecca (1940)[DVDRip][big_dad_e].avi 1.316 GB
Gathering some info...

Register and log in Isohunt and see no captcha anymore!

4000 symbols left
Hash CC07D457DEF82A5A8639E1E96ACDD779E38E97C6

Related torrents for "Rebecca (1940)[DVDRip][big dad e]"

Torrent search:

dvdrip 1940