imdb
rating

6.4
DragonHeart

DragonHeart (1996)

Action, Adventure, Drama, Fantasy

Full description
quality   hd dvdrip h264 x264 bd fullhd

DragonHeart 1996 DVD9rip English Klam

Size 1.682 GB   0 seeders     Added 2010-11-16 03:03:44

Stream torrent
Starting‥ You need BitLord! Get it from 1BitLord.com
6.7
To download or stream you need BitLord. Visit them at BitLord.com
[img]image[/img]\r\n\r\nWith: Dennis Quaid, Pete Postlethwaite and the voice of Sean Connery\r\n\r\nSet in the 10th Century, a man (Bowen) teams up with the last dragon to remind the people of a long lost code of honor, and inspire them to fight for their freedom from a tyrannical king.\r\n\r\nhttp://www.imdb.com/title/tt0116136	\r\n\r\nGeneral:\r\n\r\nComplete name                    : Klambake\\DragonHeart\\DragonHeart.avi\r\nFormat                           : AVI\r\nFormat/Info                      : Audio Video Interleave\r\nFile size                        : 1.57 GiB\r\nDuration                         : 1h 38mn\r\nOverall bit rate                 : 2 272 Kbps\r\n\r\nVideo:\r\n\r\nFormat                           : MPEG-4 Visual\r\nFormat profile                   : Simple@L3\r\nFormat settings, BVOP            : No\r\nFormat settings, QPel            : No\r\nFormat settings, GMC             : No warppoints\r\nFormat settings, Matrix          : Default (H.263)\r\nCodec ID                         : XVID\r\nCodec ID/Hint                    : XviD\r\nDuration                         : 1h 38mn\r\nBit rate                         : 1 877 Kbps\r\nWidth                            : 720 pixels\r\nHeight                           : 576 pixels\r\nDisplay aspect ratio             : 5:4\r\nFrame rate                       : 25.000 fps\r\nStandard                         : PAL\r\nColor space                      : YUV\r\nChroma subsampling               : 4:2:0\r\nBit depth                        : 8 bits\r\nScan type                        : Progressive\r\nBits/(Pixel*Frame)               : 0.181\r\nStream size                      : 1.29 GiB (83%)\r\nWriting library                  : XviD 1.1.2 (UTC 2006-11-01)\r\n\r\nAudio:\r\n\r\nFormat                           : AC-3\r\nFormat/Info                      : Audio Coding 3\r\nMode extension                   : CM (complete main)\r\nCodec ID                         : 2000\r\nDuration                         : 1h 38mn\r\nBit rate mode                    : Constant\r\nBit rate                         : 384 Kbps\r\nChannel(s)                       : 6 channels\r\nChannel positions                : Front: L C R, Side: L R, LFE\r\nSampling rate                    : 48.0 KHz\r\nBit depth                        : 16 bits\r\nStream size                      : 271 MiB (17%)\r\nAlignment                        : Aligned on interleaves\r\nInterleave, duration             : 32 ms (0.80 video frame)\r\nInterleave, preload duration     : 1024 ms
Cover/00 Film-Terminal-Flyer org.JPG 272.216 KB
Cover/flyer2Lions.jpg 375.297 KB
DragonHeart.avi 1.682 GB
Gathering some info...

Register and log in Isohunt and see no captcha anymore!

4000 symbols left
Hash 85645D41A3117907EC2034970440697F158F6097

Related torrents for "DragonHeart 1996 DVD9rip English Klam"

Torrent search:

english 1996