imdb
rating

6.1
Zathura: A Space Adventure

Zathura: A Space Adventure (2005)

Adventure, Science Fiction, Family

Full description
quality   x264 hd bd fullhd dvdrip

Jumanji 2 Zathura A Space Adventure 2005 DVD9rip English Klam

Size 1.683 GB   11 seeders     Added 2010-11-16 03:03:57

Stream torrent
Starting‥ You need BitLord! Get it from BitLord.com
8.9
To download or stream you need BitLord. Visit them at BitLord.com
[img]image[/img]\r\n\r\nWith: Tim Robbins, Josh Hutcherson and Jonah Bobo\r\n\r\nDanny and Walter are two brothers who barely get along even while driving their parents to distraction as their older sister tries to ignore them. Despite their squabbling, the brothers manage cooperate enough to play an old mechanical board game named Zathura. However, after their first move, they find that the game has apparently flung them, their sister and their entire house into outer space. Furthermore, the brothers surmise the only way to return home is to finish the game. However with almost every move, new dangers arise as the siblings find themselves learning to cooperate in ways they never expected as they realize what they mean to each other. \r\n\r\nhttp://www.imdb.com/title/tt0406375	\r\n\r\nGeneral:\r\n\r\nComplete name                    : Klambake\\Zathura\\Adventure.avi\r\nFormat                           : AVI\r\nFormat/Info                      : Audio Video Interleave\r\nFile size                        : 1.57 GiB\r\nDuration                         : 1h 37mn\r\nOverall bit rate                 : 2 307 Kbps\r\n\r\nVideo:\r\n\r\nFormat                           : MPEG-4 Visual\r\nFormat profile                   : Simple@L3\r\nFormat settings, BVOP            : No\r\nFormat settings, QPel            : No\r\nFormat settings, GMC             : No warppoints\r\nFormat settings, Matrix          : Default (H.263)\r\nCodec ID                         : XVID\r\nCodec ID/Hint                    : XviD\r\nDuration                         : 1h 37mn\r\nBit rate                         : 1 848 Kbps\r\nWidth                            : 720 pixels\r\nHeight                           : 576 pixels\r\nDisplay aspect ratio             : 5:4\r\nFrame rate                       : 25.000 fps\r\nStandard                         : PAL\r\nColor space                      : YUV\r\nChroma subsampling               : 4:2:0\r\nBit depth                        : 8 bits\r\nScan type                        : Progressive\r\nBits/(Pixel*Frame)               : 0.178\r\nStream size                      : 1.25 GiB (80%)\r\nWriting library                  : XviD 1.1.2 (UTC 2006-11-01)\r\n\r\nAudio:\r\n\r\nFormat                           : AC-3\r\nFormat/Info                      : Audio Coding 3\r\nMode extension                   : CM (complete main)\r\nCodec ID                         : 2000\r\nDuration                         : 1h 37mn\r\nBit rate mode                    : Constant\r\nBit rate                         : 448 Kbps\r\nChannel(s)                       : 6 channels\r\nChannel positions                : Front: L C R, Side: L R, LFE\r\nSampling rate                    : 48.0 KHz\r\nBit depth                        : 16 bits\r\nStream size                      : 311 MiB (19%)\r\nAlignment                        : Aligned on interleaves\r\nInterleave, duration             : 32 ms (0.80 video frame)
Adventure.avi 1.682 GB
Cover/00 Film-Terminal-Flyer org.JPG 272.216 KB
Cover/flyer2Lions.jpg 375.297 KB
Gathering some info...

Register and log in Isohunt and see no captcha anymore!

4000 symbols left
Hash 735D97E00BF7FE28ACA607A631362D65E14FB595

Related torrents for "Jumanji 2 Zathura A Space Adventure 2005 DVD9rip English Klam"

Torrent search:

english 2005