imdb
rating

8.9
Pulp Fiction

Pulp Fiction (1994)

Crime, Thriller

Full description
quality   dvdr x264 bd dvdrip

Pulp Fiction 1994 DVD9rip English Klam

Size 2.424 GB   0 seeders     Added 2010-11-18 14:39:27

Stream torrent
Starting‥ You need BitLord! Get it from BitLord.com
To download or stream you need BitLord. Visit them at BitLord.com
[img]image[/img]

With: John Travolta, Samuel L. Jackson and Bruce Willis

Jules Winnfield and Vincent Vega are two hitmen who are out to retrieve a suitcase stolen from their employer, mob boss Marsellus Wallace. Wallace has also asked Vincent to take his wife Mia out a few days later when Wallace himself will be out of town. Butch Coolidge is an aging boxer who is paid by Wallace to lose his next fight. The lives of these seemingly unrelated people are woven together comprising of a series of funny, bizarre and uncalled-for incidents.

http://www.imdb.com/title/tt0110912	

General:

Complete name                    : Klambake\Pulp\Fiction.avi
Format                           : AVI
Format/Info                      : Audio Video Interleave
File size                        : 2.26 GiB
Duration                         : 2h 34mn
Overall bit rate                 : 2 092 Kbps

Video:

Format                           : MPEG-4 Visual
Format profile                   : Simple@L3
Format settings, BVOP            : No
Format settings, QPel            : No
Format settings, GMC             : No warppoints
Format settings, Matrix          : Default (H.263)
Codec ID                         : XVID
Codec ID/Hint                    : XviD
Duration                         : 2h 34mn
Bit rate                         : 1 633 Kbps
Width                            : 720 pixels
Height                           : 576 pixels
Display aspect ratio             : 5:4
Frame rate                       : 23.976 fps
Standard                         : PAL
Color space                      : YUV
Chroma subsampling               : 4:2:0
Bit depth                        : 8 bits
Scan type                        : Progressive
Bits/(Pixel*Frame)               : 0.164
Stream size                      : 1.76 GiB (78%)
Writing library                  : XviD 1.1.2 (UTC 2006-11-01)

Audio:

Format                           : AC-3
Format/Info                      : Audio Coding 3
Mode extension                   : CM (complete main)
Codec ID                         : 2000
Duration                         : 2h 34mn
Bit rate mode                    : Constant
Bit rate                         : 448 Kbps
Channel(s)                       : 6 channels
Channel positions                : Front: L C R, Side: L R, LFE
Sampling rate                    : 48.0 KHz
Bit depth                        : 16 bits
Stream size                      : 495 MiB (21%)
Alignment                        : Aligned on interleaves
Interleave, duration             : 32 ms (0.77 video frame)
Pulp/Cover/Pulp Fiction.jpg 2.371 MB
Pulp/Fiction.avi 2.422 GB
Pulp/Torrent downloaded from Demonoid.com.txt 47 B
Gathering some info...

Register and log in Isohunt and see no captcha anymore!

4000 symbols left
Hash f89d81dd5ab0d33b364cf8babc73c847ef2c3e5a

Related torrents for "Pulp Fiction 1994 DVD9rip English Klam"

Torrent search:

english 1994