B.o.B. - Dont Let Me Fall [KingPinVideos]

Size 85.008 MB   2 seeders     Added 2010-11-19 05:14:21

Stream torrent
Starting‥ You need BitLord! Get it from 1BitLord.com
10
To download or stream you need BitLord. Visit them at BitLord.com
[code]General
Complete name                    : B.o.B. - Dont Let Me Fall [KingPinVideos].mpg
Format                           : MPEG-PS
File size                        : 81.1 MiB
Duration                         : 3mn 58s
Overall bit rate                 : 2 856 Kbps
Writing library                  : encoded by TMPGEnc 4.0 XPress Version. 4.7.4.299

Video
ID                               : 224 (0xE0)
Format                           : MPEG Video
Format version                   : Version 1
Format settings, BVOP            : Yes
Format settings, Matrix          : Default
Duration                         : 3mn 58s
Bit rate mode                    : Constant
Bit rate                         : 2 615 Kbps
Nominal bit rate                 : 2 700 Kbps
Width                            : 384 pixels
Height                           : 208 pixels
Display aspect ratio             : 16:9
Frame rate                       : 29.970 fps
Resolution                       : 8 bits
Scan type                        : Progressive
Bits/(Pixel*Frame)               : 1.092
Stream size                      : 74.2 MiB (92%)
Writing library                  : TMPGEnc XPress 4.7.4.299

Audio
ID                               : 192 (0xC0)
Format                           : MPEG Audio
Format version                   : Version 1
Format profile                   : Layer 2
Duration                         : 3mn 58s
Bit rate mode                    : Constant
Bit rate                         : 128 Kbps
Channel(s)                       : 2 channels
Sampling rate                    : 48.0 KHz
Stream size                      : 3.63 MiB (4%)[/code]
B.o.B. - Dont Let Me Fall [KingPinVideos].mpg 85.004 MB
B.o.B. - Dont Let Me Fall [KingPinVideos].nfo 1.855 KB
B.o.B. - Dont Let Me Fall [KingPinVideos].txt 1.67 KB
Gathering some info...

Register and log in Isohunt and see no captcha anymore!

4000 symbols left
Hash FEE506523567D18370A79B2470F4450A8CB33F69

Related torrents for "B.o.B. - Dont Let Me Fall [KingPinVideos]"