imdb
rating

6.3
Evita

Evita (1996)

Drama, History, Music

Full description
quality   hdtv dvdrip x264 hd bd h264 web-dl

Evita 1996 Madonna (DVDRip Xvid AC3 german Subs hardcoded) by Proxi[shared for WoT]

Size 1.472 GB   0 seeders     Added 2010-11-22 02:38:19

Stream torrent
Starting‥ You need BitLord! Get it from BitLord.com
10
To download or stream you need BitLord. Visit them at BitLord.com
Complete name:   Evita\r\nFormat                                                 : AVI\r\nFormat/Info                  : Audio Video Interleave\r\nFile size                                          : 1.37 GiB\r\nDuration                                          : 2h 8mn\r\nOverall bit rate                            : 1 522 Kbps\r\nWriting application: VirtualDubMod 1.5.1.1a (build 1155/release)\r\nWriting library: VirtualDubMod build 1155/release\r\n\r\nVideo\r\nID                               : 0\r\nFormat                           : MPEG-4 Visual\r\nFormat profile         : Advanced Simple@L5\r\nFormat settings, BVOP                     : Yes\r\nFormat settings, QPel                       : No\r\nFormat settings, GMC       : No warppoints\r\nFormat settings, Matrix              : Custom\r\nCodec ID                                    : XVID\r\nCodec ID/Hint                              : XviD\r\nDuration                                 : 2h 8mn\r\nBit rate                              : 1 064 Kbps\r\nWidth                                  : 672 pixels\r\nHeight                                 : 368 pixels\r\nDisplay aspect ratio                      : 16:9\r\nFrame rate                          : 25.000 fps\r\nColor space                                  : YUV\r\nChroma subsampling                     : 4:2:0\r\nBit depth                                   : 8 bits\r\nScan type                          : Progressive\r\nBits/(Pixel*Frame)                       : 0.172\r\nStream size                    : 981 MiB (70)\r\nWriting library: XviD 1.2.0.dev47 (UTC 2006-11-01)\r\n\r\nAudio\r\nID                                                           : 1\r\nFormat                                               : AC-3\r\nFormat/Info                            : Audio Coding 3\r\nFormat profile                            : Dolby Digital\r\nMode extension                : CM (complete main)\r\nCodec ID                                             : 2000\r\nDuration                                          : 2h 8mn\r\nBit rate mode                                 : Constant\r\nBit rate                                         : 448 Kbps\r\nChannel(s)                                  : 2 channels\r\nChannel positions                          : Front: L R\r\nSampling rate                                 : 48.0 KHz\r\nBit depth                                         : 16 bits\r\nStream size                           : 413 MiB (29)\r\nAlignment                : Split accross interleaves\r\nInterleave, duration  : 40 ms (1.00 video frame)\r\nInterleave, preload duration               : 500 ms
Evita.1996.Madonna.(DVDRip.Xvid.AC3.german.Subs.hardcoded).by.Proxi.avi 1.471 GB
Evita.1996.Madonna.(DVDRip.Xvid.AC3.german.Subs.hardcoded).by.Proxi.jpg 139.133 KB
Evita.1996.Madonna.(DVDRip.Xvid.AC3.german.Subs.hardcoded).by.Proxi.nfo 4.802 KB
Gathering some info...

Register and log in Isohunt and see no captcha anymore!

4000 symbols left
Hash B51A842F702AC1CC224224638223DC02B546305C

Related torrents for "Evita 1996 Madonna (DVDRip Xvid AC3 german Subs hardcoded) by Proxi[shared for WoT]"

Torrent search:

dvdrip subs german 1996