\" The.Next.Three.Days.2010.CAM.XViD-LU \".feeltheforce.biz

Size 734.406 MB   0 seeders     Added 2010-11-24 16:28:52

To download or stream you need BitLord. Visit them at BitLord.com
Genre : Crime / Drama / Romance / Thriller



Plot : A married couple's life is turned upside down when the wife is accused of a murder.



Format : AVI



Format/Info : Audio Video Interleave



File size : 702 MiB



Duration : 1h 57mn



Overall bit rate : 832 Kbps



Writing application : VirtualDubMod 1.5.4.1 (build 2178/release)



Writing library : VirtualDub build 32706/release







Video



ID : 0



Format : MPEG-4 Visual



Format profile : Advanced Simple@L5



Format settings, BVOP : Yes



Format settings, QPel : No



Format settings, GMC : No warppoints



Format settings, Matrix : Custom



Codec ID : XVID



Codec ID/Hint : XviD



Duration : 1h 57mn



Bit rate : 694 Kbps



Width : 640 pixels



Height : 336 pixels



Display aspect ratio : 1.905



Frame rate : 25.000 fps



Color space : YUV



Chroma subsampling : 4:2:0



Bit depth : 8 bits



Scan type : Progressive



Compression mode : Lossy



Bits/(Pixel*Frame) : 0.129



Stream size : 586 MiB (83%)



Writing library : XviD 1.2.1 (UTC 2008-12-04)







Audio



ID : 1



Format : MPEG Audio



Format version : Version 1



Format profile : Layer 3



Codec ID : 55



Codec ID/Hint : MP3



Duration : 1h 57mn



Bit rate mode : Constant



Bit rate : 128 Kbps



Channel(s) : 2 channels



Sampling rate : 44.1 KHz



Compression mode : Lossy



Stream size : 108 MiB (15%)



Alignment : Split across interleaves



Interleave, duration : 40 ms (1.00 video frame)



Interleave, preload duration : 500 ms



Writing library : LAME3.98.4



READ NOTES

missing video at 1 37 about 30 seconds, but not bad rest video skip from time too time . overall not bad
The Next Three Days.xvid.cam.lu.NFO 2.795 KB
The.Next.Three.Days.2010.Cam.Lu.part01.rar 15.004 MB
The.Next.Three.Days.2010.Cam.Lu.part02.rar 15.004 MB
Gathering some info...

Register and log in Isohunt and see no captcha anymore!

4000 symbols left
Hash 326928B694ADC3303F380B2A23E8A3D4F32FE8C5