imdb
rating

 
Animal Kingdom

Animal Kingdom (2016)

Crime, Drama

Full description

Animal Kingdom [DVD5] [ENG] [AC3] [Hannspree] [www.ft2.co.uk]

Size 1.528 GB   0 seeders     Added 2010-11-30 08:03:51

Stream torrent
Starting‥ You need BitLord! Get it from BitLord.com
10
To download or stream you need BitLord. Visit them at BitLord.com
=====================================================================================
\n[ Another free, high quality, ready to burn DVD I will be adding new torrents on a daily basis - Remember to seed ]
\n=====================================================================================
\nMOVIE TITLE: Animal Kingdom
\nLANGUAGE: English
\nMOVIE SUBS: No
\nBURN TESTED: Yes
\nFORMAT: Pal
\nGENRE: Crime | Drama
\nRUNTIME: 113 Minutes
\nYEAR: 2010
\nIMDB LINK: http://www.imdb.com/title/tt1313092/
\n=====================================================================================
\nMOVIE DESC:
\n
\nDespite being no saint herself, Julia Cody has shielded her seventeen year old son, Joshua \"J\" Cody, from her Melbourne-based criminal relatives who they have not seen in years. After Julia dies in front of J\'s eyes from a self-inflicted heroin overdose, J, who is slightly detached from life, feels he has no choice but to contact his maternal grandmother, Janine \"Smurf\" Cody, the family matriarch, for a place to live. Smurf rules the family with a borderline incestuous love over her three sons, the quietly menacing Andrew \"Pope\" Cody, the hyperactive Craig Cody, and the barely of age Darren Cody. Pope and his best friend, Barry \"Baz\" Brown, are armed robbers, with Darren their up and coming apprentice, while Craig is a mid level drug dealer. Melbourne\'s Armed Robbery Squad is after specifically Pope, who is hiding out. But when the standoff between the Codys and the Armed Robbery Squad is brought up a notch.
\n=====================================================================================
\nMOVIE SPECS:
\n
\nGENERAL:
\nComplete name : Animal Kingdom [DVD5]
\nFormat : MPEG-PS
\nFile size : 1.42 GB
\nDuration : 113 Minutes
\nOverall bit rate : 1 813 Kbps
\n
\nVIDEO:
\nID : 224 (0xE0)
\nFormat : MPEG Video
\nFormat version : Version 2
\nFormat profile : Main@Main
\nFormat settings, BVOP : Yes
\nFormat settings, Matrix : Default
\nDuration : 113 Minutes
\nBit rate mode : Variable
\nBit rate : 1 585 Kbps
\nNominal bit rate : 9 608 Kbps
\nWidth : 720 pixels
\nHeight : 576 pixels
\nDisplay aspect ratio : 16:9
\nFrame rate : 25.000 fps
\nStandard : PAL
\nColor space : YUV
\nChroma subsampling : 4:2:0
\nBit depth : 8 bits
\nScan type : Progressive
\nCompression mode : Lossy
\nBits/(Pixel*Frame) : 0.153
\nStream size : 895 MiB (87%)
\n
\nAUDIO:
\nID : 128 (0x80)
\nFormat : AC-3
\nFormat/Info : Audio Coding 3
\nMode extension : CM (complete main)
\nDuration : 113 Minutes
\nBit rate mode : Constant
\nBit rate : 192 Kbps
\nChannel(s) : 2 channels
\nChannel positions : Front: L R
\nSampling rate : 48.0 KHz
\nBit depth : 16 bits
\nCompression mode : Lossy
\nStream size : 108 MiB (11%)
\n=====================================================================================
\nTRACKERS:
\nhttp://inferno.demonoid.com:3410/announce
\nhttp://exodus.1337x.org/announce
\nhttp://tracker.ilibr.org/announce
\nhttp://tpb.tracker.prq.to/announce
\nhttp://red.tracker.prq.to/announce
\nhttp://gemini.tracker.prq.to/announce
\nhttp://tracker.publicbt.org/announce
\nhttp://nemesis.1337x.org/announce
\nhttp://secure.pow7.com/announce
\nhttp://t2.pow7.com/announce
\nhttp://pow7.com/announce
\n=====================================================================================
\n[FOOT NOTE]
\nIf you are happy with this download, it would be nice to hear your views or comments that you might have. Enjoy
\n[Recommended to join] http://www.ft2.co.uk/ [copy and paste link to you browser] Come and take a look - FREE
\n=====================================================================================
\nScreen Shot And DVD Cover Of Animal Kingdom
\n=====================================================================================
\n[img]image[/img]
\n=====================================================================================
\n[img]image[/img]
\n=====================================================================================
\n[img]image[/img]
\n=====================================================================================
\n[img]image[/img]
\n=====================================================================================
Animal Kingdom/Animal Kingdom.NFO 4.373 KB
Animal Kingdom/Animal Kingdom/Animal Kingdom [Images]/animal.jpg 58.689 KB
Animal Kingdom/Animal Kingdom/Animal Kingdom [Images]/animalkingdom1.jpg 99.236 KB
Gathering some info...

Register and log in Isohunt and see no captcha anymore!

4000 symbols left
Hash 191f5cc6437c464aa456872b8190020e5bd0930d

Related torrents for "Animal Kingdom [DVD5] [ENG] [AC3] [Hannspree] [www.ft2.co.uk]"

Torrent search:

english dvdr