Mickey Mouse Clubhouse - Mickey & Pluto to The Rescue

Mickey Mouse Clubhouse - Mickey & Pluto to The Rescue (2010)

Full description
quality   dvdrip

Mickey.Mouse.Clubhouse.Mickeys.Numbers.Roundup 2010 DVDRip Xvid LKRG

Size 832.85 MB   9 seeders     Added 2010-11-30 15:02:26

Stream torrent
Starting‥ You need BitLord! Get it from BitLord.com
10
To download or stream you need BitLord. Visit them at BitLord.com


<span style="red;">Format;Avi

File Size:794mb

Video: ID : 0
Format : MPEG-4 Visual
Format profile : Advanced Simple@L5
Format settings, BVOP : Yes
Format settings, QPel : No
Format settings, GMC : No warppoints
Format settings, Matrix : Default (H.263)
Muxing mode : Packed bitstream
Codec ID : XVID
Codec ID/Hint : XviD
Duration : 1h 36mn
Bit rate : 949 Kbps
Width : 700 pixels
Height : 412 pixels
Display aspect ratio : 1.699
Frame rate : 29.970 fps
Color space : YUV
Chroma subsampling : 4:2:0
Bit depth : 8 bits
Scan type : Progressive
Bits/(Pixel*Frame) : 0.110
Stream size : 654 MiB (82%)
Writing library : XviD 1.2.1 (UTC 2008-12-04)


Audio: ID : 1
Format : AC-3
Format/Info : Audio Coding 3
Format profile : Dolby Digital
Mode extension : CM (complete main)
Codec ID : 2000
Duration : 1h 36mn
Bit rate mode : Constant
Bit rate : 192 Kbps
Channel(s) : 2 channels
Channel positions : Front: L R
Sampling rate : 48.0 KHz
Bit depth : 16 bits
Stream size : 132 MiB (17%)
Alignment : Aligned on interleaves
Interleave, duration : 33 ms (1.00 video frame)
Interleave, preload duration : 512 ms


Duration:1:36

Release Date:2010

Language:English
</span>

<span style="gray;">Plot: Rustle Up Some Fun! Howdy Mousekeroos! It's time to put on your cowboy hats, grab your lassos and help Mickey, Goofy and all your Clubhouse pals wrangle a boisterous herd of wild numbers into Mickey Corral. Laugh it up as you count 'em down from 10 to 1, and rustle up the right Mouseketools to catch those rascally numbers! Then search for Daisy Bo Peep's lost sheep, decode a secret message, and solve more super fun puzzles. For big surprises and rootin', tootin' fun from sun up to sundown, count on Mickey's Numbers Round-Up!

Cast:
</span>







Mickey.Mouse.Clubhouse.Mickeys.Numbers.Roundup 2010 DVDRip Xvid LKRG/cover.jpg 254.162 KB
Mickey.Mouse.Clubhouse.Mickeys.Numbers.Roundup 2010 DVDRip Xvid LKRG/mmLKRG.avi 832.596 MB
Gathering some info...

Register and log in Isohunt and see no captcha anymore!

4000 symbols left
Hash d38f7d2becde111db7619f4dfe69c2dbf17bb000