Deadlands

Deadlands (2015)

Action, Adventure, Drama, Western

Full description

Deadland [DVD5] [ENG] [AC3] [Hannspree] [www.ft2.co.uk]

Size 2.073 GB   0 seeders     Added 2010-12-01 08:47:33

Stream torrent
Starting‚Ä• You need BitLord! Get it from BitLord.com
To download or stream you need BitLord. Visit them at BitLord.com
=====================================================================================
\n[ Another free, high quality, ready to burn DVD I will be adding new torrents on a daily basis - Remember to seed ]
\n=====================================================================================
\nMOVIE TITLE: Deadland
\nLANGUAGE: English
\nMOVIE SUBS: No
\nBURN TESTED: Yes
\nFORMAT: Pal
\nGENRE: Action | Drama | Sci-Fi
\nRUNTIME: 108 Minutes
\nYEAR: 2009
\nIMDB LINK: http://www.imdb.com/title/tt1037154/
\n=====================================================================================
\nMOVIE DESC:
\n
\nIntertwined within it\'s sci-fi action/thriller roots, at its core deadland is a story of hope set in a post-apocalyptic world. After five years of searching, survivor Sean Kalos stumbles upon proof that his missing wife
\n
\nmay still be alive in the new United Provinces. World War III\'s nuclear strikes on the U.S. set the nation back 200 years, and hope is all but lost when every survivor of the war is infected by a fatal nuclear
\n
\nplague. What was designed to be the new rebirth has become martial law, and the Officers of the Province wield their power with cruelty. When Sean crosses them, he finds himself in the middle of a personal
\n
\nwar, and his quest for his wife inspires hope in a land that has forgotten the meaning of the word.
\n=====================================================================================
\nMOVIE SPECS:
\n
\nGENERAL:
\nComplete name : Deadland [DVD5]
\nFormat : MPEG-PS
\nFile size : 1.92 GB
\nDuration : 108 Minutes
\nOverall bit rate : 2 845 Kbps
\n
\nVIDEO:
\nID : 224 (0xE0)
\nFormat : MPEG Video
\nFormat version : Version 2
\nFormat profile : Main@Main
\nFormat settings, BVOP : Yes
\nFormat settings, Matrix : Default
\nDuration : 108 Minutes
\nBit rate mode : Variable
\nBit rate : 2 341 Kbps
\nNominal bit rate : 9 352 Kbps
\nWidth : 720 pixels
\nHeight : 576 pixels
\nDisplay aspect ratio : 16:9
\nFrame rate : 24.000 fps
\nStandard : PAL
\nColor space : YUV
\nChroma subsampling : 4:2:0
\nBit depth : 8 bits
\nScan type : Progressive
\nScan order : 2:2:2:2:2:2:2:2:2:2:2:3 Pulldown
\nCompression mode : Lossy
\nBits/(Pixel*Frame) : 0.235
\nStream size : 842 MiB (82%)
\n
\nAUDIO:
\nID : 128 (0x80)
\nFormat : AC-3
\nFormat/Info : Audio Coding 3
\nMode extension : CM (complete main)
\nDuration : 108 Minutes
\nBit rate mode : Constant
\nBit rate : 448 Kbps
\nChannel(s) : 6 channels
\nChannel positions : Front: L C R, Side: L R, LFE
\nSampling rate : 48.0 KHz
\nBit depth : 16 bits
\nCompression mode : Lossy
\nStream size : 161 MiB (16%)
\n=====================================================================================
\nTRACKERS:
\nhttp://fr33dom.h33t.com:3310/announce
\nhttp://exodus.1337x.org/announce
\nhttp://tracker.ilibr.org/announce
\nhttp://tpb.tracker.prq.to/announce
\nhttp://red.tracker.prq.to/announce
\nhttp://gemini.tracker.prq.to/announce
\nhttp://tracker.publicbt.org/announce
\nhttp://nemesis.1337x.org/announce
\nhttp://secure.pow7.com/announce
\nhttp://t2.pow7.com/announce
\nhttp://pow7.com/announce
\n=====================================================================================
\n[FOOT NOTE]
\nIf you are happy with this download, it would be nice to hear your views or comments that you might have. Enjoy
\n[Recommended to join] http://www.ft2.co.uk/ [copy and paste link to you browser] Come and take a look - FREE
\n=====================================================================================
\nDVD Cover And Screen Shot Of Deadland
\n=====================================================================================
\n[img]image[/img]
\n=====================================================================================
\n[img]image[/img]
\n=====================================================================================
\n[img]image[/img]
\n=====================================================================================
\n[img]image[/img]
\n=====================================================================================
Deadland/Deadland/Deadland/VIDEO_TS/VIDEO_TS.BUP 12.288 KB
Deadland/Deadland/Deadland/VIDEO_TS/VIDEO_TS.IFO 12.288 KB
Deadland/Deadland/Deadland/VIDEO_TS/VIDEO_TS.VOB 59.392 KB
Gathering some info...

Register and log in Isohunt and see no captcha anymore!

4000 symbols left
Hash 5cccba96cfb900bd56da5808d36fa07b9858b170

Related torrents for "Deadland [DVD5] [ENG] [AC3] [Hannspree] [www.ft2.co.uk]"

Torrent search:

english dvdr