Casino

Casino (2011)

Drama

Full description

Casino Jack [DVD5] [ENG] [AC3] [Hannspree] [www.ft2.co.uk]

Size 1.963 GB   0 seeders     Added 2010-12-01 08:46:44

Stream torrent
Starting‥ You need BitLord! Get it from BitLord.com
To download or stream you need BitLord. Visit them at BitLord.com
=====================================================================================
\n[ Another free, high quality, ready to burn DVD I will be adding new torrents on a daily basis - Remember to seed ]
\n=====================================================================================
\nMOVIE TITLE: Casino Jack
\nLANGUAGE: English
\nMOVIE SUBS: No
\nBURN TESTED: Yes
\nFORMAT: Pal
\nGENRE: Biography | Comedy | Crime
\nRUNTIME: 104 Minutes
\nYEAR: 2010
\nIMDB LINK: http://www.imdb.com/title/tt1194417/
\n=====================================================================================
\nMOVIE DESC:
\n
\nTwo–time Academy Award Winner Kevin Spacey gives the performance of a lifetime in \"Casino Jack,\" a riotous new film starring Spacey as a man hell bent on acquiring all that the good life has to offer. He plays in the same game as the highest of rollers and resorts to awe–inspiring levels of conning, scheming and fraudulent antics to get what he wants. Inspired by true events that are too over–the–top for even the wildest imaginations to conjure, \"Casino Jack\" lays bare the wild excesses and escapades of Jack Abramoff. Aided by his business partner Michael Scanlon (Barry Pepper), Jack parlays his clout over some of the world\'s most powerful men with the goal of creating a personal empire of wealth and influence. When the two enlist a mob–connected buddy (Jon Lovitz) to help with one of their illegal schemes, they soon find themselves in over their heads, entrenched in a world of mafia assassins, murder and a scandal that spins so out of control that it makes worldwide headlines.
\n=====================================================================================
\nMOVIE SPECS:
\n
\nGENERAL:
\nComplete name : Casino Jack [DVD5]
\nFormat : MPEG-PS
\nFile size : 1.82 GB
\nDuration : 104 Minutes
\nOverall bit rate : 2 711 Kbps
\n
\nVIDEO:
\nID : 224 (0xE0)
\nFormat : MPEG Video
\nFormat version : Version 2
\nFormat profile : Main@Main
\nFormat settings, BVOP : Yes
\nFormat settings, Matrix : Default
\nDuration : 104 Minutes
\nBit rate mode : Variable
\nBit rate : 2 465 Kbps
\nNominal bit rate : 9 608 Kbps
\nWidth : 720 pixels
\nHeight : 576 pixels
\nDisplay aspect ratio : 16:9
\nFrame rate : 25.000 fps
\nStandard : PAL
\nColor space : YUV
\nChroma subsampling : 4:2:0
\nBit depth : 8 bits
\nScan type : Progressive
\nCompression mode : Lossy
\nBits/(Pixel*Frame) : 0.238
\nStream size : 931 MiB (91%)
\n
\nAUDIO:
\nID : 128 (0x80)
\nFormat : AC-3
\nFormat/Info : Audio Coding 3
\nMode extension : CM (complete main)
\nDuration : 104 Minutes
\nBit rate mode : Constant
\nBit rate : 192 Kbps
\nChannel(s) : 2 channels
\nChannel positions : Front: L R
\nSampling rate : 48.0 KHz
\nBit depth : 16 bits
\nCompression mode : Lossy
\nStream size : 72.5 MiB (7%)
\n=====================================================================================
\nTRACKERS:
\nhttp://fr33dom.h33t.com:3310/announce
\nhttp://exodus.1337x.org/announce
\nhttp://tracker.ilibr.org/announce
\nhttp://tpb.tracker.prq.to/announce
\nhttp://red.tracker.prq.to/announce
\nhttp://gemini.tracker.prq.to/announce
\nhttp://tracker.publicbt.org/announce
\nhttp://nemesis.1337x.org/announce
\nhttp://secure.pow7.com/announce
\nhttp://t2.pow7.com/announce
\nhttp://pow7.com/announce
\n=====================================================================================
\n[FOOT NOTE]
\nIf you are happy with this download, it would be nice to hear your views or comments that you might have. Enjoy
\n[Recommended to join] http://www.ft2.co.uk/ [copy and paste link to you browser] Come and take a look - FREE
\n=====================================================================================
\nDVD Cover And Screen Shot Of Casino Jack
\n=====================================================================================
\n[img]image[/img]
\n=====================================================================================
\n[img]image[/img]
\n=====================================================================================
\n[img]image[/img]
\n=====================================================================================
\n[img]image[/img]
\n=====================================================================================
Casino Jack/Casino Jack/Casino Jack/VIDEO_TS/VIDEO_TS.BUP 12.288 KB
Casino Jack/Casino Jack/Casino Jack/VIDEO_TS/VIDEO_TS.IFO 12.288 KB
Casino Jack/Casino Jack/Casino Jack/VIDEO_TS/VIDEO_TS.VOB 59.392 KB
Gathering some info...

Register and log in Isohunt and see no captcha anymore!

4000 symbols left
Hash b980936bd254cf0aee0e24e152800a1ab44c399e

Related torrents for "Casino Jack [DVD5] [ENG] [AC3] [Hannspree] [www.ft2.co.uk]"

Torrent search:

english dvdr